  0
SECTION
  2
HEADER
  9
$ACADVER
  1
AC1032
  9
$ACADMAINTVER
 90
      157
  9
$DWGCODEPAGE
  3
ANSI_1252
  9
$LASTSAVEDBY
  1
Kevin.Lindstrom
  9
$REQUIREDVERSIONS
160
                 0
  9
$INSBASE
 10
0.0
 20
0.0
 30
0.0
  9
$EXTMIN
 10
18.91995321240726
 20
17.56183727275917
 30
0.0
  9
$EXTMAX
 10
25.32010608848576
 20
25.13038562429693
 30
0.0
  9
$LIMMIN
 10
0.0
 20
0.0
  9
$LIMMAX
 10
12.0
 20
9.0
  9
$ORTHOMODE
 70
     0
  9
$REGENMODE
 70
     1
  9
$FILLMODE
 70
     1
  9
$QTEXTMODE
 70
     0
  9
$MIRRTEXT
 70
     0
  9
$LTSCALE
 40
1.0
  9
$ATTMODE
 70
     1
  9
$TEXTSIZE
 40
0.2
  9
$TRACEWID
 40
0.05
  9
$TEXTSTYLE
  7
Standard
  9
$CLAYER
  8
0
  9
$CELTYPE
  6
ByLayer
  9
$CECOLOR
 62
   256
  9
$CELTSCALE
 40
1.0
  9
$DISPSILH
 70
     0
  9
$DIMSCALE
 40
1.0
  9
$DIMASZ
 40
0.12
  9
$DIMEXO
 40
0.05
  9
$DIMDLI
 40
0.5
  9
$DIMRND
 40
0.0
  9
$DIMDLE
 40
0.0
  9
$DIMEXE
 40
0.1
  9
$DIMTP
 40
0.1
  9
$DIMTM
 40
0.1
  9
$DIMTXT
 40
0.12
  9
$DIMCEN
 40
0.0
  9
$DIMTSZ
 40
0.0
  9
$DIMTOL
 70
     0
  9
$DIMLIM
 70
     0
  9
$DIMTIH
 70
     1
  9
$DIMTOH
 70
     1
  9
$DIMSE1
 70
     0
  9
$DIMSE2
 70
     0
  9
$DIMTAD
 70
     0
  9
$DIMZIN
 70
     7
  9
$DIMBLK
  1

  9
$DIMASO
 70
     1
  9
$DIMSHO
 70
     1
  9
$DIMPOST
  1

  9
$DIMAPOST
  1
mm
  9
$DIMALT
 70
     0
  9
$DIMALTD
 70
     2
  9
$DIMALTF
 40
25.4
  9
$DIMLFAC
 40
1.0
  9
$DIMTOFL
 70
     0
  9
$DIMTVP
 40
0.0
  9
$DIMTIX
 70
     0
  9
$DIMSOXD
 70
     0
  9
$DIMSAH
 70
     0
  9
$DIMBLK1
  1

  9
$DIMBLK2
  1

  9
$DIMSTYLE
  2
AM_ANSI
  9
$DIMCLRD
 70
   256
  9
$DIMCLRE
 70
   256
  9
$DIMCLRT
 70
     2
  9
$DIMTFAC
 40
0.71
  9
$DIMGAP
 40
0.06
  9
$DIMJUST
 70
     0
  9
$DIMSD1
 70
     0
  9
$DIMSD2
 70
     0
  9
$DIMTOLJ
 70
     1
  9
$DIMTZIN
 70
     7
  9
$DIMALTZ
 70
     0
  9
$DIMALTTZ
 70
     0
  9
$DIMUPT
 70
     0
  9
$DIMDEC
 70
     4
  9
$DIMTDEC
 70
     4
  9
$DIMALTU
 70
     2
  9
$DIMALTTD
 70
     4
  9
$DIMTXSTY
  7
Standard
  9
$DIMAUNIT
 70
     0
  9
$DIMADEC
 70
     0
  9
$DIMALTRND
 40
0.0
  9
$DIMAZIN
 70
     2
  9
$DIMDSEP
 70
    46
  9
$DIMATFIT
 70
     3
  9
$DIMFRAC
 70
     0
  9
$DIMLDRBLK
  1

  9
$DIMLUNIT
 70
     2
  9
$DIMLWD
 70
    -1
  9
$DIMLWE
 70
    -1
  9
$DIMTMOVE
 70
     0
  9
$DIMFXL
 40
1.0
  9
$DIMFXLON
 70
     0
  9
$DIMJOGANG
 40
0.7853981633974483
  9
$DIMTFILL
 70
     0
  9
$DIMTFILLCLR
 70
     0
  9
$DIMARCSYM
 70
     1
  9
$DIMLTYPE
  6
ByBlock
  9
$DIMLTEX1
  6
ByBlock
  9
$DIMLTEX2
  6
ByBlock
  9
$DIMTXTDIRECTION
 70
     0
  9
$LUNITS
 70
     2
  9
$LUPREC
 70
     4
  9
$SKETCHINC
 40
0.1
  9
$FILLETRAD
 40
0.0
  9
$AUNITS
 70
     0
  9
$AUPREC
 70
     0
  9
$MENU
  1
.
  9
$ELEVATION
 40
0.0
  9
$PELEVATION
 40
0.0
  9
$THICKNESS
 40
0.0
  9
$LIMCHECK
 70
     0
  9
$CHAMFERA
 40
0.0
  9
$CHAMFERB
 40
0.0
  9
$CHAMFERC
 40
0.0
  9
$CHAMFERD
 40
0.0
  9
$SKPOLY
 70
     0
  9
$TDCREATE
 40
2458344.623576389
  9
$TDUCREATE
 40
2458344.790243056
  9
$TDUPDATE
 40
2459004.998333333
  9
$TDUUPDATE
 40
2459005.165000000
  9
$TDINDWG
 40
1.2621064815
  9
$TDUSRTIMER
 40
1.2621064815
  9
$USRTIMER
 70
     1
  9
$ANGBASE
 50
0.0
  9
$ANGDIR
 70
     0
  9
$PDMODE
 70
     0
  9
$PDSIZE
 40
0.0
  9
$PLINEWID
 40
0.0
  9
$SPLFRAME
 70
     0
  9
$SPLINETYPE
 70
     6
  9
$SPLINESEGS
 70
     8
  9
$HANDSEED
  5
20E0
  9
$SURFTAB1
 70
     6
  9
$SURFTAB2
 70
     6
  9
$SURFTYPE
 70
     6
  9
$SURFU
 70
     6
  9
$SURFV
 70
     6
  9
$UCSBASE
  2

  9
$UCSNAME
  2

  9
$UCSORG
 10
0.0
 20
0.0
 30
0.0
  9
$UCSXDIR
 10
1.0
 20
0.0
 30
0.0
  9
$UCSYDIR
 10
0.0
 20
1.0
 30
0.0
  9
$UCSORTHOREF
  2

  9
$UCSORTHOVIEW
 70
     0
  9
$UCSORGTOP
 10
0.0
 20
0.0
 30
0.0
  9
$UCSORGBOTTOM
 10
0.0
 20
0.0
 30
0.0
  9
$UCSORGLEFT
 10
0.0
 20
0.0
 30
0.0
  9
$UCSORGRIGHT
 10
0.0
 20
0.0
 30
0.0
  9
$UCSORGFRONT
 10
0.0
 20
0.0
 30
0.0
  9
$UCSORGBACK
 10
0.0
 20
0.0
 30
0.0
  9
$PUCSBASE
  2

  9
$PUCSNAME
  2

  9
$PUCSORG
 10
0.0
 20
0.0
 30
0.0
  9
$PUCSXDIR
 10
1.0
 20
0.0
 30
0.0
  9
$PUCSYDIR
 10
0.0
 20
1.0
 30
0.0
  9
$PUCSORTHOREF
  2

  9
$PUCSORTHOVIEW
 70
     0
  9
$PUCSORGTOP
 10
0.0
 20
0.0
 30
0.0
  9
$PUCSORGBOTTOM
 10
0.0
 20
0.0
 30
0.0
  9
$PUCSORGLEFT
 10
0.0
 20
0.0
 30
0.0
  9
$PUCSORGRIGHT
 10
0.0
 20
0.0
 30
0.0
  9
$PUCSORGFRONT
 10
0.0
 20
0.0
 30
0.0
  9
$PUCSORGBACK
 10
0.0
 20
0.0
 30
0.0
  9
$USERI1
 70
     0
  9
$USERI2
 70
     0
  9
$USERI3
 70
     0
  9
$USERI4
 70
     0
  9
$USERI5
 70
     0
  9
$USERR1
 40
0.0
  9
$USERR2
 40
0.0
  9
$USERR3
 40
0.0
  9
$USERR4
 40
0.0
  9
$USERR5
 40
0.0
  9
$WORLDVIEW
 70
     1
  9
$SHADEDGE
 70
     3
  9
$SHADEDIF
 70
    70
  9
$TILEMODE
 70
     0
  9
$MAXACTVP
 70
    64
  9
$PINSBASE
 10
0.0
 20
0.0
 30
0.0
  9
$PLIMCHECK
 70
     0
  9
$PEXTMIN
 10
0.3093692292309651
 20
0.3194843464751703
 30
0.0
  9
$PEXTMAX
 10
7.808806356315961
 20
10.30808073276256
 30
0.0
  9
$PLIMMIN
 10
-0.1909257097745325
 20
-0.1862136705895949
  9
$PLIMMAX
 10
8.309074049929577
 20
10.81378608911451
  9
$UNITMODE
 70
     0
  9
$VISRETAIN
 70
     1
  9
$PLINEGEN
 70
     0
  9
$PSLTSCALE
 70
     1
  9
$TREEDEPTH
 70
  3020
  9
$CMLSTYLE
  2
Standard
  9
$CMLJUST
 70
     0
  9
$CMLSCALE
 40
1.0
  9
$PROXYGRAPHICS
 70
     1
  9
$MEASUREMENT
 70
     0
  9
$CELWEIGHT
370
    -1
  9
$ENDCAPS
280
     0
  9
$JOINSTYLE
280
     0
  9
$LWDISPLAY
290
     0
  9
$INSUNITS
 70
     1
  9
$HYPERLINKBASE
  1

  9
$STYLESHEET
  1

  9
$XEDIT
290
     1
  9
$CEPSNTYPE
380
     0
  9
$PSTYLEMODE
290
     1
  9
$FINGERPRINTGUID
  2
{0FC8BFD8-9902-F141-9585-65B41FACCAF2}
  9
$VERSIONGUID
  2
{0DA26A3D-BED3-BC4B-948E-86A06A734838}
  9
$EXTNAMES
290
     1
  9
$PSVPSCALE
 40
0.0
  9
$OLESTARTUP
290
     0
  9
$SORTENTS
280
   127
  9
$INDEXCTL
280
     0
  9
$HIDETEXT
280
     1
  9
$XCLIPFRAME
280
     2
  9
$HALOGAP
280
     0
  9
$OBSCOLOR
 70
   257
  9
$OBSLTYPE
280
     0
  9
$INTERSECTIONDISPLAY
280
     0
  9
$INTERSECTIONCOLOR
 70
   257
  9
$DIMASSOC
280
     2
  9
$PROJECTNAME
  1

  9
$CAMERADISPLAY
290
     0
  9
$LENSLENGTH
 40
50.0
  9
$CAMERAHEIGHT
 40
0.0
  9
$STEPSPERSEC
 40
2.0
  9
$STEPSIZE
 40
6.0
  9
$3DDWFPREC
 40
2.0
  9
$PSOLWIDTH
 40
0.25
  9
$PSOLHEIGHT
 40
4.0
  9
$LOFTANG1
 40
1.570796326794896
  9
$LOFTANG2
 40
1.570796326794896
  9
$LOFTMAG1
 40
0.0
  9
$LOFTMAG2
 40
0.0
  9
$LOFTPARAM
 70
     7
  9
$LOFTNORMALS
280
     1
  9
$LATITUDE
 40
37.795
  9
$LONGITUDE
 40
-122.394
  9
$NORTHDIRECTION
 40
0.0
  9
$TIMEZONE
 70
 -8000
  9
$LIGHTGLYPHDISPLAY
280
     1
  9
$TILEMODELIGHTSYNCH
280
     1
  9
$CMATERIAL
347
96
  9
$SOLIDHIST
280
     0
  9
$SHOWHIST
280
     1
  9
$DWFFRAME
280
     2
  9
$DGNFRAME
280
     0
  9
$REALWORLDSCALE
290
     1
  9
$INTERFERECOLOR
 62
     1
  9
$INTERFEREOBJVS
345
A3
  9
$INTERFEREVPVS
346
A0
  9
$CSHADOW
280
     0
  9
$SHADOWPLANELOCATION
 40
0.0
  0
ENDSEC
  0
SECTION
  2
CLASSES
  0
CLASS
  1
ACDBDICTIONARYWDFLT
  2
AcDbDictionaryWithDefault
  3
ObjectDBX Classes
 90
        0
 91
        1
280
     0
281
     0
  0
CLASS
  1
ACDBPLACEHOLDER
  2
AcDbPlaceHolder
  3
ObjectDBX Classes
 90
        0
 91
        1
280
     0
281
     0
  0
CLASS
  1
LAYOUT
  2
AcDbLayout
  3
ObjectDBX Classes
 90
        0
 91
        2
280
     0
281
     0
  0
CLASS
  1
DICTIONARYVAR
  2
AcDbDictionaryVar
  3
ObjectDBX Classes
 90
        0
 91
       10
280
     0
281
     0
  0
CLASS
  1
TABLESTYLE
  2
AcDbTableStyle
  3
ObjectDBX Classes
 90
     4095
 91
        1
280
     0
281
     0
  0
CLASS
  1
MATERIAL
  2
AcDbMaterial
  3
ObjectDBX Classes
 90
     1153
 91
        3
280
     0
281
     0
  0
CLASS
  1
VISUALSTYLE
  2
AcDbVisualStyle
  3
ObjectDBX Classes
 90
     4095
 91
       24
280
     0
281
     0
  0
CLASS
  1
SCALE
  2
AcDbScale
  3
ObjectDBX Classes
 90
     1153
 91
       19
280
     0
281
     0
  0
CLASS
  1
MLEADERSTYLE
  2
AcDbMLeaderStyle
  3
ACDB_MLEADERSTYLE_CLASS
 90
     4095
 91
        2
280
     0
281
     0
  0
CLASS
  1
CELLSTYLEMAP
  2
AcDbCellStyleMap
  3
ObjectDBX Classes
 90
     1152
 91
        1
280
     0
281
     0
  0
CLASS
  1
EXACXREFPANELOBJECT
  2
ExAcXREFPanelObject
  3
EXAC_ESW
 90
     1025
 91
        1
280
     0
281
     0
  0
CLASS
  1
NPOCOLLECTION
  2
AcDbImpNonPersistentObjectsCollection
  3
ObjectDBX Classes
 90
     1153
 91
        1
280
     0
281
     0
  0
CLASS
  1
LAYER_INDEX
  2
AcDbLayerIndex
  3
ObjectDBX Classes
 90
        0
 91
        0
280
     0
281
     0
  0
CLASS
  1
SPATIAL_INDEX
  2
AcDbSpatialIndex
  3
ObjectDBX Classes
 90
        0
 91
        0
280
     0
281
     0
  0
CLASS
  1
IDBUFFER
  2
AcDbIdBuffer
  3
ObjectDBX Classes
 90
        0
 91
        0
280
     0
281
     0
  0
CLASS
  1
ACDBSECTIONVIEWSTYLE
  2
AcDbSectionViewStyle
  3
ObjectDBX Classes
 90
     1025
 91
        2
280
     0
281
     0
  0
CLASS
  1
ACDBDETAILVIEWSTYLE
  2
AcDbDetailViewStyle
  3
ObjectDBX Classes
 90
     1025
 91
        2
280
     0
281
     0
  0
CLASS
  1
ACME_DOCUMENT
  2
AcMeDbDoc
  3
AcMeServices
 90
     1024
 91
        0
280
     0
281
     0
  0
CLASS
  1
AMGSETTINGSOBJ
  2
AmgSettingsObj
  3
"AcadM|Product Description: AutoCAD Mechanical|Company: Autodesk, Inc."
 90
     1024
 91
        3
280
     0
281
     0
  0
CLASS
  1
ACMESCOPE
  2
AcMeScope
  3
AcMeServices
 90
     1024
 91
        1
280
     0
281
     0
  0
CLASS
  1
ACMECOMMANDHISTORY
  2
AcMeCommandHistory
  3
AcMeServices
 90
     1024
 91
        1
280
     0
281
     0
  0
CLASS
  1
ACIMSYSVARMAN
  2
AcImSysVarManager
  3
AcMeServices
 90
     1024
 91
        3
280
     0
281
     0
  0
CLASS
  1
ACIMINTSYSVAR
  2
AcImIntSysVar
  3
AcMeServices
 90
     1024
 91
        2
280
     0
281
     0
  0
CLASS
  1
ACMESTATEMGR
  2
AcMeStateMgr
  3
AcMeServices
 90
     1024
 91
        1
280
     0
281
     0
  0
CLASS
  1
ACDBENTITYCACHE
  2
AcMeEntityCache
  3
AcMeServices
 90
     1024
 91
        0
280
     0
281
     0
  0
CLASS
  1
ACGREFMASTER
  2
AcGrefMaster
  3
AcAttribServices
 90
     1024
 91
        1
280
     0
281
     0
  0
CLASS
  1
ACME_DATABASE
  2
AcMeDbDatabase
  3
AcMeServices
 90
     1024
 91
        0
280
     0
281
     0
  0
CLASS
  1
ACRFINSADJUSTERMGR
  2
AcRfInsAdjusterMgr
  3
AcMeServices
 90
     1024
 91
        0
280
     0
281
     0
  0
CLASS
  1
ACGREFACADMASTER
  2
AcGrefacadMaster
  3
AcGrefServices
 90
     1024
 91
        1
280
     0
281
     0
  0
CLASS
  1
AMIMASTER
  2
AmiMaster
  3
AmiServices
 90
     1024
 91
        1
280
     0
281
     0
  0
CLASS
  1
AMDTMENUSTATEMGR
  2
AmdtMenuStateMgr
  3
McadcomServices
 90
     1024
 91
        0
280
     0
281
     0
  0
CLASS
  1
AMDTMCOMMENUSTATE
  2
AmdtMcomMenuState
  3
McadcomServices
 90
     1024
 91
        0
280
     0
281
     0
  0
CLASS
  1
MAPIAMMOUDLE
  2
MApiAmModule
  3
MApiAmServices
 90
     1024
 91
        1
280
     0
281
     0
  0
CLASS
  1
ACIMSTRSYSVAR
  2
AcImStrSysVar
  3
AcMeServices
 90
     1024
 91
        5
280
     0
281
     0
  0
CLASS
  1
AMDTAMMENUSTATE
  2
AmdtAmMenuState
  3
DesignerAssemblies_arx
 90
     1024
 91
        0
280
     0
281
     0
  0
CLASS
  1
ACAMPROJECT
  2
AcAmProject
  3
DesignerAssemblies
 90
     1024
 91
        1
280
     0
281
     0
  0
CLASS
  1
ACAMGRCOMPDEF
  2
AcAmGrCompDef
  3
DesignerAssemblies
 90
     1024
 91
        1
280
     0
281
     0
  0
CLASS
  1
ACAMCOMPDEF
  2
AcAmCompDef
  3
DesignerAssemblies
 90
     1024
 91
        1
280
     0
281
     0
  0
CLASS
  1
ACAMCOMPDEFMGR
  2
AcAmCompDefMgr
  3
DesignerAssemblies
 90
     1024
 91
        1
280
     0
281
     0
  0
CLASS
  1
AMCONTEXTMGR
  2
AcAmContextMgr
  3
DesignerAssemblies
 90
     1024
 91
        1
280
     0
281
     0
  0
CLASS
  1
ACAMCONTEXTMODELER
  2
AcAmContextModeler
  3
DesignerAssemblies
 90
     1024
 91
        1
280
     0
281
     0
  0
CLASS
  1
ACMDATADICTIONARY
  2
AcmDataDictionary
  3
"AcmSymBB|Product Description: AutoCAD Mechanical|Company: Autodesk, Inc."
 90
     1024
 91
        1
280
     0
281
     0
  0
CLASS
  1
ACMSTANDARDANSI
  2
AcmStandardANSI
  3
"Amdt_StdImp|Product Description: AutoCAD Mechanical|Company: Autodesk, Inc."
 90
     1024
 91
        1
280
     0
281
     0
  0
CLASS
  1
ACMSURFSTANDARDANSI
  2
AcmSurfTextStdANSI
  3
"Amdt_StdImp|Product Description: AutoCAD Mechanical|Company: Autodesk, Inc."
 90
     1024
 91
        1
280
     0
281
     0
  0
CLASS
  1
ACMFCFSTANDARDANSI
  2
AcmFCFStdANSI
  3
"Amdt_StdImp|Product Description: AutoCAD Mechanical|Company: Autodesk, Inc."
 90
     1024
 91
        1
280
     0
281
     0
  0
CLASS
  1
ACMWELDSTANDARDANSI
  2
AcmWeldingStdANSI
  3
"Amdt_StdImp|Product Description: AutoCAD Mechanical|Company: Autodesk, Inc."
 90
     1024
 91
        1
280
     0
281
     0
  0
CLASS
  1
ACMIDSTANDARDANSI
  2
AcmIdStdANSI
  3
"Amdt_StdImp|Product Description: AutoCAD Mechanical|Company: Autodesk, Inc."
 90
     1024
 91
        1
280
     0
281
     0
  0
CLASS
  1
ACMDATUMSTANDARDANSI
  2
AcmDatumStdANSI
  3
"Amdt_StdImp|Product Description: AutoCAD Mechanical|Company: Autodesk, Inc."
 90
     1024
 91
        1
280
     0
281
     0
  0
CLASS
  1
ACMBOMSTANDARDANSI
  2
AcmBOMStdANSI
  3
"Amdt_StdImp|Product Description: AutoCAD Mechanical|Company: Autodesk, Inc."
 90
     1024
 91
        1
280
     0
281
     0
  0
CLASS
  1
ACMDETAILSTANDARDANSI
  2
AmdtDetailSymStdANSI
  3
"Amdt_StdImp|Product Description: AutoCAD Mechanical|Company: Autodesk, Inc."
 90
     1024
 91
        1
280
     0
281
     0
  0
CLASS
  1
ACMSECTIONSTANDARDANSI
  2
AmdtSectionSymStdANSI
  3
"Amdt_StdImp|Product Description: AutoCAD Mechanical|Company: Autodesk, Inc."
 90
     1024
 91
        1
280
     0
281
     0
  0
CLASS
  1
ACMCENTERLINESTANDARDANSI
  2
AmdtCenterLineStdANSI
  3
"Amdt_StdImp|Product Description: AutoCAD Mechanical|Company: Autodesk, Inc."
 90
     1024
 91
        1
280
     0
281
     0
  0
CLASS
  1
ACMTHREADLINESTANDARDANSI
  2
AmdtThreadLineStdANSI
  3
"Amdt_StdImp|Product Description: AutoCAD Mechanical|Company: Autodesk, Inc."
 90
     1024
 91
        1
280
     0
281
     0
  0
CLASS
  1
ACMNOTESTANDARDANSI
  2
AmdtNoteStdANSI
  3
"Amdt_StdImp|Product Description: AutoCAD Mechanical|Company: Autodesk, Inc."
 90
     1024
 91
        1
280
     0
281
     0
  0
CLASS
  1
ACMTAPERSTANDARDANSI
  2
AcmTaperStdANSI
  3
"Amdt_StdImp|Product Description: AutoCAD Mechanical|Company: Autodesk, Inc."
 90
     1024
 91
        1
280
     0
281
     0
  0
CLASS
  1
ACMANOOTATIONVIEWSTANDARDANSI
  2
AmdtAnViewStdANSI
  3
"Amdt_StdImp|Product Description: AutoCAD Mechanical|Company: Autodesk, Inc."
 90
     1024
 91
        1
280
     0
281
     0
  0
CLASS
  1
ACAMGLAYSTD
  2
AcAmgLayStd
  3
"AmgLay|Product Description: AutoCAD Mechanical|Company: Autodesk, Inc."
 90
     1024
 91
        1
280
     0
281
     0
  0
CLASS
  1
ACAMGDIMSTD
  2
AcAmgDimStd
  3
"AmgDim|Product Description: AutoCAD Mechanical|Company: Autodesk, Inc."
 90
     1024
 91
        1
280
     0
281
     0
  0
CLASS
  1
AMGOBJPROPCFG
  2
AmgObjPropCfg
  3
"AmgLay|Product Description: AutoCAD Mechanical|Company: Autodesk, Inc."
 90
     1024
 91
        1
280
     0
281
     0
  0
CLASS
  1
ACAMGHOLECHARTSTDANSI
  2
AcAmgHoleChartStdANSI
  3
"AmgDim" "Product Description: AutoCAD Mechanical|Company: Autodesk, Inc."
 90
     1024
 91
        1
280
     0
281
     0
  0
CLASS
  1
ACAMGTITLESTD
  2
AcAmgTitleStd
  3
"AmgTitle|Product Description: AutoCAD Mechanical|Company: Autodesk, Inc."
 90
     1024
 91
        1
280
     0
281
     0
  0
CLASS
  1
ACMSECTIONSTANDARDCUSTOM
  2
AmdtSectionSymStdCustom
  3
"Amdt_StdImp|Product Description: AutoCAD Mechanical|Company: Autodesk, Inc."
 90
     1024
 91
        1
280
     0
281
     0
  0
CLASS
  1
ACMDETAILTANDARDCUSTOM
  2
AmdtDetailSymStdCustom
  3
"Amdt_StdImp|Product Description: AutoCAD Mechanical|Company: Autodesk, Inc."
 90
     1024
 91
        1
280
     0
281
     0
  0
CLASS
  1
FIELD
  2
AcDbField
  3
ObjectDBX Classes
 90
     1152
 91
        6
280
     0
281
     0
  0
CLASS
  1
FIELDLIST
  2
AcDbFieldList
  3
ObjectDBX Classes
 90
     1152
 91
        1
280
     0
281
     0
  0
CLASS
  1
AMDTNOTETEMPLATEDB
  2
AmdtNoteTemplateDB
  3
"AcmSymBB" "Product Description: AutoCAD Mechanical|Company: Autodesk, Inc."
 90
     1024
 91
        7
280
     0
281
     0
  0
CLASS
  1
ACAMGRCOMPDEFSET
  2
AcAmGrCompDefSet
  3
DesignerAssemblies
 90
     1024
 91
        0
280
     0
281
     0
  0
CLASS
  1
AMDTBROWSERDBTAB
  2
AmdtBrowserDbTab
  3
McadcomServices
 90
     1024
 91
        0
280
     0
281
     0
  0
CLASS
  1
CBROWSERAPPOBJECT
  2
CBrowserAppObject
  3
McadcomServices
 90
     1024
 91
        0
280
     0
281
     0
  0
CLASS
  1
DM_PLACEHOLDER
  2
AcDmSelsetPlaceholder
  3
McadcomServices
 90
     1024
 91
        0
280
     0
281
     0
  0
CLASS
  1
ACAMGFILTERDAT
  2
AcAmgFilterDat
  3
"AcadM|Product Description: AutoCAD Mechanical|Company: Autodesk, Inc."
 90
     1024
 91
        6
280
     0
281
     0
  0
CLASS
  1
CAMSSTRUCTBTNSTATE
  2
StructBtnState
  3
DesignerAssemblies_arx
 90
     1024
 91
        1
280
     0
281
     0
  0
CLASS
  1
SORTENTSTABLE
  2
AcDbSortentsTable
  3
ObjectDBX Classes
 90
        0
 91
        2
280
     0
281
     0
  0
CLASS
  1
RASTERVARIABLES
  2
AcDbRasterVariables
  3
ISM
 90
        0
 91
        1
280
     0
281
     0
  0
CLASS
  1
IMAGEDEF
  2
AcDbRasterImageDef
  3
ISM
 90
        0
 91
        1
280
     0
281
     0
  0
CLASS
  1
IMAGEDEF_REACTOR
  2
AcDbRasterImageDefReactor
  3
ISM
 90
        1
 91
        2
280
     0
281
     0
  0
CLASS
  1
IMAGE
  2
AcDbRasterImage
  3
ISM
 90
     2175
 91
        1
280
     0
281
     1
  0
CLASS
  1
RAPIDRTRENDERSETTINGS
  2
AcDbRapidRTRenderSettings
  3
ObjectDBX Classes
 90
     1024
 91
        6
280
     0
281
     0
  0
CLASS
  1
AMDTNOTE
  2
AmdtNote
  3
"AcmSymBB|Product Description: AutoCAD Mechanical|Company: Autodesk, Inc."
 90
     1024
 91
        0
280
     0
281
     1
  0
CLASS
  1
DIMASSOC
  2
AcDbDimAssoc
  3
"AcDbDimAssoc|Product Desc:     AcDim ARX App For Dimension|Company:          Autodesk, Inc.|WEB Address:      www.autodesk.com"
 90
        0
 91
        1
280
     0
281
     0
  0
ENDSEC
  0
SECTION
  2
TABLES
  0
TABLE
  2
VPORT
  5
8
330
0
100
AcDbSymbolTable
 70
     1
  0
VPORT
  5
94
330
8
100
AcDbSymbolTableRecord
100
AcDbViewportTableRecord
  2
*Active
 70
     0
 10
0.0
 20
0.0
 11
1.0
 21
1.0
 12
21.0720341515011
 22
18.23974914469816
 13
0.0
 23
0.0
 14
0.5
 24
0.5
 15
0.5
 25
0.5
 16
0.0
 26
0.0
 36
1.0
 17
0.0
 27
0.0
 37
0.0
 40
3.065328363917288
 41
2.158896289248334
 42
50.0
 43
0.0
 44
0.0
 50
0.0
 51
0.0
 71
     0
 72
  1000
 73
     1
 74
     3
 75
     0
 76
     0
 77
     0
 78
     0
281
     0
 65
     1
110
0.0
120
0.0
130
0.0
111
1.0
121
0.0
131
0.0
112
0.0
122
1.0
132
0.0
 79
     0
146
0.0
348
9F
 60
     3
 61
     5
292
     1
282
     1
141
0.0
142
0.0
 63
   250
421
  3355443
1001
ACAD_NAV_VCDISPLAY
1070
     3
  0
ENDTAB
  0
TABLE
  2
LTYPE
  5
5
330
0
100
AcDbSymbolTable
 70
    16
  0
LTYPE
  5
14
330
5
100
AcDbSymbolTableRecord
100
AcDbLinetypeTableRecord
  2
ByBlock
 70
     0
  3

 72
    65
 73
     0
 40
0.0
  0
LTYPE
  5
15
330
5
100
AcDbSymbolTableRecord
100
AcDbLinetypeTableRecord
  2
ByLayer
 70
     0
  3

 72
    65
 73
     0
 40
0.0
  0
LTYPE
  5
16
330
5
100
AcDbSymbolTableRecord
100
AcDbLinetypeTableRecord
  2
Continuous
 70
     0
  3
Solid line
 72
    65
 73
     0
 40
0.0
  0
LTYPE
  5
21A
330
5
100
AcDbSymbolTableRecord
100
AcDbLinetypeTableRecord
  2
HIDDEN
 70
     0
  3
Hidden __ __ __ __ __ __ __ __ __ __ __ __ __ _
 72
    65
 73
     2
 40
0.375
 49
0.25
 74
     0
 49
-0.125
 74
     0
  0
LTYPE
  5
21B
330
5
100
AcDbSymbolTableRecord
100
AcDbLinetypeTableRecord
  2
PHANTOM2
 70
     0
  3
Phantom (.5x) ___ _ _ ___ _ _ ___ _ _ ___ _ _
 72
    65
 73
     6
 40
1.25
 49
0.625
 74
     0
 49
-0.125
 74
     0
 49
0.125
 74
     0
 49
-0.125
 74
     0
 49
0.125
 74
     0
 49
-0.125
 74
     0
  0
LTYPE
  5
21C
330
5
100
AcDbSymbolTableRecord
100
AcDbLinetypeTableRecord
  2
CENTER
 70
     0
  3
Center ____ _ ____ _ ____ _ ____ _ ____ _ ____
 72
    65
 73
     4
 40
2.0
 49
1.25
 74
     0
 49
-0.25
 74
     0
 49
0.25
 74
     0
 49
-0.25
 74
     0
  0
LTYPE
  5
250
330
5
100
AcDbSymbolTableRecord
100
AcDbLinetypeTableRecord
  2
AM_ISO02W050
 70
     0
  3
__ __ __ __ __ __ __ __ __ __ __ __ __ __ __
 72
    65
 73
     2
 40
7.5
 49
6.0
 74
     0
 49
-1.5
 74
     0
  0
LTYPE
  5
251
330
5
100
AcDbSymbolTableRecord
100
AcDbLinetypeTableRecord
  2
AM_ISO08W050
 70
     0
  3
____ . ____ . ____ . ____ . ____ . ____ . ____
 72
    65
 73
     4
 40
18.0
 49
12.0
 74
     0
 49
-1.5
 74
     0
 49
3.0
 74
     0
 49
-1.5
 74
     0
  0
LTYPE
  5
252
330
5
100
AcDbSymbolTableRecord
100
AcDbLinetypeTableRecord
  2
AM_ISO09W050
 70
     0
  3
_____ . . _____ . . _____ . . ____ .. ____
 72
    65
 73
     6
 40
22.5
 49
12.0
 74
     0
 49
-1.5
 74
     0
 49
3.0
 74
     0
 49
-1.5
 74
     0
 49
3.0
 74
     0
 49
-1.5
 74
     0
  0
LTYPE
  5
253
330
5
100
AcDbSymbolTableRecord
100
AcDbLinetypeTableRecord
  2
Amconstr
 70
     0
  3
_______________________
 72
    65
 73
     2
 40
9999.0
 49
9999.0
 74
     0
 49
0.0
 74
     0
  0
LTYPE
  5
254
330
5
100
AcDbSymbolTableRecord
100
AcDbLinetypeTableRecord
  2
AM_ISO08W050x2
 70
     0
  3
__ . __ . __ . __ . __ . __
 72
    65
 73
     4
 40
9.0
 49
6.0
 74
     0
 49
-0.75
 74
     0
 49
1.5
 74
     0
 49
-0.75
 74
     0
  0
LTYPE
  5
255
330
5
100
AcDbSymbolTableRecord
100
AcDbLinetypeTableRecord
  2
AM_ISO02W050x2
 70
     0
  3
 _ _ _ _ _ _ _ _ _ _ _ _
 72
    65
 73
     2
 40
3.75
 49
3.0
 74
     0
 49
-0.75
 74
     0
  0
LTYPE
  5
258
330
5
100
AcDbSymbolTableRecord
100
AcDbLinetypeTableRecord
  2
Amzigzag
 70
     0
  3
/\/-/\/-/\/-/\/-/\/-/\/
 72
    65
 73
     2
 40
11.0001
 49
0.0001
 74
     4
 75
   136
340
257
 46
0.04
 50
0.0
 44
0.0
 45
0.0
 49
-11.0
 74
     0
  0
LTYPE
  5
259
330
5
100
AcDbSymbolTableRecord
100
AcDbLinetypeTableRecord
  2
CENTER2
 70
     0
  3
Center (.5x) ___ _ ___ _ ___ _ ___ _ ___ _ ___
 72
    65
 73
     4
 40
1.125
 49
0.75
 74
     0
 49
-0.125
 74
     0
 49
0.125
 74
     0
 49
-0.125
 74
     0
  0
LTYPE
  5
25A
330
5
100
AcDbSymbolTableRecord
100
AcDbLinetypeTableRecord
  2
HIDDEN2
 70
     0
  3
Hidden (.5x) _ _ _ _ _ _ _ _ _ _ _ _ _ _ _ _ _
 72
    65
 73
     2
 40
0.1875
 49
0.125
 74
     0
 49
-0.0625
 74
     0
  0
LTYPE
  5
25B
330
5
100
AcDbSymbolTableRecord
100
AcDbLinetypeTableRecord
  2
Amzigzag2
 70
     0
  3
/\/-/\/-/\/-/\/-/\/-/\/
 72
    65
 73
     2
 40
0.4401
 49
0.0001
 74
     4
 75
   136
340
257
 46
0.0016
 50
0.0
 44
0.0
 45
0.0
 49
-0.4400000000000001
 74
     0
  0
LTYPE
  5
26B
330
5
100
AcDbSymbolTableRecord
100
AcDbLinetypeTableRecord
  2
ACANSTGB
 70
     0
  3
__ . . __ . .
 72
    65
 73
     6
 40
0.35433070866
 49
0.15748031496
 74
     0
 49
-0.03937007874
 74
     0
 49
0.03937007874
 74
     0
 49
-0.03937007874
 74
     0
 49
0.03937007874
 74
     0
 49
-0.03937007874
 74
     0
  0
LTYPE
  5
26C
330
5
100
AcDbSymbolTableRecord
100
AcDbLinetypeTableRecord
  2
ACANSTGL
 70
     0
  3
_ _ _ _ _
 72
    65
 73
     2
 40
0.11811023622
 49
0.07874015748
 74
     0
 49
-0.03937007874
 74
     0
  0
ENDTAB
  0
TABLE
  2
LAYER
  5
2
102
{ACAD_XDICTIONARY
360
18E
102
}
330
0
100
AcDbSymbolTable
 70
    39
  0
LAYER
  5
10
102
{ACAD_XDICTIONARY
360
E6
102
}
330
2
100
AcDbSymbolTableRecord
100
AcDbLayerTableRecord
  2
0
 70
     0
 62
     7
  6
Continuous
370
    -3
390
F
347
98
348
0
  0
LAYER
  5
402
330
2
100
AcDbSymbolTableRecord
100
AcDbLayerTableRecord
  2
title block
 70
     0
 62
     1
  6
Continuous
370
    15
390
F
347
98
348
0
1001
AcAecLayerStandard
1000

1000

  0
LAYER
  5
404
330
2
100
AcDbSymbolTableRecord
100
AcDbLayerTableRecord
  2
address
 70
     0
 62
   250
  6
Continuous
370
    -3
390
F
347
98
348
0
1001
AcAecLayerStandard
1000

1000

  0
LAYER
  5
405
330
2
100
AcDbSymbolTableRecord
100
AcDbLayerTableRecord
  2
logos
 70
     0
 62
   255
  6
Continuous
370
    -3
390
F
347
98
348
0
1001
AcAecLayerStandard
1000

1000

  0
LAYER
  5
413
330
2
100
AcDbSymbolTableRecord
100
AcDbLayerTableRecord
  2
BORDER
 70
     0
 62
   251
  6
Continuous
370
    -3
390
F
347
98
348
0
1001
AcAecLayerStandard
1000

1000

  0
LAYER
  5
422
330
2
100
AcDbSymbolTableRecord
100
AcDbLayerTableRecord
  2
Layer 1
 70
     0
 62
     7
  6
Continuous
370
    -3
390
F
347
98
348
0
  0
LAYER
  5
423
330
2
100
AcDbSymbolTableRecord
100
AcDbLayerTableRecord
  2
MORTAIRVENT
 70
     0
 62
     3
  6
Continuous
370
    -3
390
F
347
98
348
0
1001
AcAecLayerStandard
1000

1000

  0
LAYER
  5
586
330
2
100
AcDbSymbolTableRecord
100
AcDbLayerTableRecord
  2
TITLE
 70
     0
 62
     1
  6
Continuous
370
    -3
390
F
347
98
348
0
1001
AcAecLayerStandard
1000

1000

1001
AcCmTransparency
1071
        0
  0
LAYER
  5
5AD
330
2
100
AcDbSymbolTableRecord
100
AcDbLayerTableRecord
  2
NOTES
 70
     0
 62
     7
  6
Continuous
370
    -3
390
F
347
98
348
0
1001
AcAecLayerStandard
1000

1000

1001
AcCmTransparency
1071
        0
  0
LAYER
  5
5C2
330
2
100
AcDbSymbolTableRecord
100
AcDbLayerTableRecord
  2
AM_VIEWS
 70
     0
 62
     1
  6
Continuous
290
     0
370
    15
390
F
347
98
348
0
1001
AcAecLayerStandard
1000

1000

  0
LAYER
  5
5D9
330
2
100
AcDbSymbolTableRecord
100
AcDbLayerTableRecord
  2
A-DE-35
 70
     0
 62
     1
  6
Continuous
370
    -3
390
F
347
98
348
0
1001
AcAecLayerStandard
1000

1000

  0
LAYER
  5
5DA
330
2
100
AcDbSymbolTableRecord
100
AcDbLayerTableRecord
  2
A-DE-10
 70
     0
 62
     6
  6
Continuous
370
    -3
390
F
347
98
348
0
1001
AcAecLayerStandard
1000

1000

  0
LAYER
  5
5DB
330
2
100
AcDbSymbolTableRecord
100
AcDbLayerTableRecord
  2
DRAINAGE MAT
 70
     0
 62
     1
  6
Continuous
370
    -3
390
F
347
98
348
0
1001
AcAecLayerStandard
1000

1000

1001
AcCmTransparency
1071
        0
  0
LAYER
  5
5DC
330
2
100
AcDbSymbolTableRecord
100
AcDbLayerTableRecord
  2
WRB
 70
     0
 62
     5
  6
Continuous
370
    -3
390
F
347
98
348
0
1001
AcAecLayerStandard
1000

1000

1001
AcCmTransparency
1071
        0
  0
LAYER
  5
5DD
330
2
100
AcDbSymbolTableRecord
100
AcDbLayerTableRecord
  2
HATCH
 70
     0
 62
     9
  6
Continuous
370
    -3
390
F
347
98
348
0
1001
AcAecLayerStandard
1000

1000

1001
AcCmTransparency
1071
        0
  0
LAYER
  5
5DE
330
2
100
AcDbSymbolTableRecord
100
AcDbLayerTableRecord
  2
ADHESIVE
 70
     0
 62
   250
  6
Continuous
370
    -3
390
F
347
98
348
0
1001
AcAecLayerStandard
1000

1000

1001
AcCmTransparency
1071
        0
  0
LAYER
  5
5DF
330
2
100
AcDbSymbolTableRecord
100
AcDbLayerTableRecord
  2
BRICK
 70
     0
 62
     7
  6
Continuous
370
    -3
390
F
347
98
348
0
1001
AcAecLayerStandard
1000

1000

1001
AcCmTransparency
1071
        0
  0
LAYER
  5
5E0
330
2
100
AcDbSymbolTableRecord
100
AcDbLayerTableRecord
  2
LEADERS
 70
     0
 62
     7
  6
Continuous
370
    -3
390
F
347
98
348
0
1001
AcAecLayerStandard
1000

1000

1001
AcCmTransparency
1071
        0
  0
LAYER
  5
5E1
330
2
100
AcDbSymbolTableRecord
100
AcDbLayerTableRecord
  2
SUBSTRATE
 70
     0
 62
     6
  6
Continuous
370
    -3
390
F
347
98
348
0
1001
AcAecLayerStandard
1000

1000

1001
AcCmTransparency
1071
        0
  0
LAYER
  5
5E2
330
2
100
AcDbSymbolTableRecord
100
AcDbLayerTableRecord
  2
MORTAR
 70
     0
 62
     3
  6
Continuous
370
    -3
390
F
347
98
348
0
1001
AcAecLayerStandard
1000

1000

1001
AcCmTransparency
1071
        0
  0
LAYER
  5
5E3
330
2
100
AcDbSymbolTableRecord
100
AcDbLayerTableRecord
  2
SCREW
 70
     0
 62
     8
  6
Continuous
370
    -3
390
F
347
98
348
0
1001
AcAecLayerStandard
1000

1000

1001
AcCmTransparency
1071
        0
  0
LAYER
  5
5E4
330
2
100
AcDbSymbolTableRecord
100
AcDbLayerTableRecord
  2
WALL CONSTRUCTION
 70
     0
 62
   252
  6
Continuous
370
    -3
390
F
347
98
348
0
1001
AcAecLayerStandard
1000

1000

1001
AcCmTransparency
1071
        0
  0
LAYER
  5
5E5
330
2
100
AcDbSymbolTableRecord
100
AcDbLayerTableRecord
  2
MORTAR HATCH
 70
     0
 62
     9
  6
Continuous
370
    -3
390
F
347
98
348
0
1001
AcAecLayerStandard
1000

1000

1001
AcCmTransparency
1071
        0
  0
LAYER
  5
99C
330
2
100
AcDbSymbolTableRecord
100
AcDbLayerTableRecord
  2
viewports
 70
     0
 62
     7
  6
Continuous
290
     0
370
    30
390
F
347
98
348
0
1001
AcAecLayerStandard
1000

1000

  0
LAYER
  5
12BB
330
2
100
AcDbSymbolTableRecord
100
AcDbLayerTableRecord
  2
DIMENSIONS
 70
     0
 62
     7
  6
Continuous
370
    -3
390
F
347
98
348
0
1001
AcAecLayerStandard
1000

1000

1001
AcCmTransparency
1071
        0
  0
LAYER
  5
12BC
330
2
100
AcDbSymbolTableRecord
100
AcDbLayerTableRecord
  2
A-DE-50
 70
     0
 62
     3
  6
Continuous
370
    -3
390
F
347
98
348
0
1001
AcAecLayerStandard
1000

1000

  0
LAYER
  5
12BD
330
2
100
AcDbSymbolTableRecord
100
AcDbLayerTableRecord
  2
CLASSIC PANEL
 70
     0
 62
     6
  6
Continuous
370
    -3
390
F
347
98
348
0
1001
AcAecLayerStandard
1000

1000

1001
AcCmTransparency
1071
        0
  0
LAYER
  5
12BE
330
2
100
AcDbSymbolTableRecord
100
AcDbLayerTableRecord
  2
A-NO
 70
     0
 62
     7
  6
Continuous
370
    -3
390
F
347
98
348
0
1001
AcAecLayerStandard
1000

1000

  0
LAYER
  5
12BF
330
2
100
AcDbSymbolTableRecord
100
AcDbLayerTableRecord
  2
A-DE-20
 70
     0
 62
     4
  6
Continuous
370
    -3
390
F
347
98
348
0
1001
AcAecLayerStandard
1000

1000

  0
LAYER
  5
144A
330
2
100
AcDbSymbolTableRecord
100
AcDbLayerTableRecord
  2
A-PA
 70
     0
 62
     9
  6
Continuous
370
    -3
390
F
347
98
348
0
1001
AcAecLayerStandard
1000

1000

  0
LAYER
  5
144B
330
2
100
AcDbSymbolTableRecord
100
AcDbLayerTableRecord
  2
BASE PLATE
 70
     0
 62
     6
  6
Continuous
370
    -3
390
F
347
98
348
0
1001
AcAecLayerStandard
1000

1000

1001
AcCmTransparency
1071
        0
  0
LAYER
  5
144C
330
2
100
AcDbSymbolTableRecord
100
AcDbLayerTableRecord
  2
INSULATION
 70
     0
 62
     4
  6
Continuous
370
    -3
390
F
347
98
348
0
1001
AcAecLayerStandard
1000

1000

1001
AcCmTransparency
1071
        0
  0
LAYER
  5
1945
330
2
100
AcDbSymbolTableRecord
100
AcDbLayerTableRecord
  2
scale
 70
     0
 62
     7
  6
Continuous
290
     0
370
    -3
390
F
347
98
348
0
1001
AcAecLayerStandard
1000

1000

  0
LAYER
  5
1CE8
330
2
100
AcDbSymbolTableRecord
100
AcDbLayerTableRecord
  2
GRADE
 70
     0
 62
     5
  6
Continuous
370
    -3
390
F
347
98
348
0
  0
LAYER
  5
1CE9
330
2
100
AcDbSymbolTableRecord
100
AcDbLayerTableRecord
  2
FLASHING
 70
     0
 62
     8
  6
Continuous
370
    -3
390
F
347
98
348
0
  0
LAYER
  5
1CEA
330
2
100
AcDbSymbolTableRecord
100
AcDbLayerTableRecord
  2
WEEP HOLE
 70
     0
 62
     5
  6
HIDDEN2
370
    -3
390
F
347
98
348
0
1001
AcAecLayerStandard
1000

1000

1001
AcCmTransparency
1071
        0
  0
LAYER
  5
1CEB
330
2
100
AcDbSymbolTableRecord
100
AcDbLayerTableRecord
  2
FOUNDATION
 70
     0
 62
     7
  6
Continuous
370
    -3
390
F
347
98
348
0
1001
AcAecLayerStandard
1000

1000

1001
AcCmTransparency
1071
        0
  0
LAYER
  5
1CEC
330
2
100
AcDbSymbolTableRecord
100
AcDbLayerTableRecord
  2
FLASHING TAPE
 70
     0
 62
     1
  6
Continuous
370
    -3
390
F
347
98
348
0
1001
AcAecLayerStandard
1000

1000

1001
AcCmTransparency
1071
        0
  0
LAYER
  5
1FB0
330
2
100
AcDbSymbolTableRecord
100
AcDbLayerTableRecord
  2
Defpoints
 70
     0
 62
     7
  6
Continuous
290
     0
370
    -3
390
F
347
98
348
0
  0
ENDTAB
  0
TABLE
  2
STYLE
  5
3
330
0
100
AcDbSymbolTable
 70
     8
  0
STYLE
  5
11
330
3
100
AcDbSymbolTableRecord
100
AcDbTextStyleTableRecord
  2
Standard
 70
     0
 40
0.0
 41
1.0
 50
0.0
 71
     0
 42
0.2
  3
arial.ttf
  4

1001
ACAD
1000
Arial
1071
       34
  0
STYLE
  5
DC
330
3
100
AcDbSymbolTableRecord
100
AcDbTextStyleTableRecord
  2
Annotative
 70
     0
 40
0.0
 41
1.0
 50
0.0
 71
     0
 42
0.2
  3
arial.ttf
  4

1001
AcadAnnotative
1000
AnnotativeData
1002
{
1070
     1
1070
     1
1002
}
1001
ACAD
1000
Arial
1071
       34
  0
STYLE
  5
257
330
3
100
AcDbSymbolTableRecord
100
AcDbTextStyleTableRecord
  2

 70
     1
 40
0.0
 41
1.0
 50
0.0
 71
     0
 42
0.2
  3
genltshp.shx
  4

  0
STYLE
  5
269
330
3
100
AcDbSymbolTableRecord
100
AcDbTextStyleTableRecord
  2
ACANSTS
 70
     0
 40
0.0
 41
1.0
 50
0.0
 71
     0
 42
0.2
  3
romans.shx
  4

  0
STYLE
  5
26A
330
3
100
AcDbSymbolTableRecord
100
AcDbTextStyleTableRecord
  2
ACANSGDT
 70
     0
 40
0.0
 41
1.0
 50
0.0
 71
     0
 42
0.2
  3
amgdt.shx
  4

  0
STYLE
  5
424
330
3
100
AcDbSymbolTableRecord
100
AcDbTextStyleTableRecord
  2
SMOOTH
 70
     0
 40
0.0
 41
1.0
 50
0.0
 71
     0
 42
0.5244619964034975
  3
ROMANS
  4

  0
STYLE
  5
425
330
3
100
AcDbSymbolTableRecord
100
AcDbTextStyleTableRecord
  2
DETAILS
 70
     0
 40
0.0
 41
1.0
 50
0.0
 71
     0
 42
0.09375
  3
sanss___.ttf
  4

1001
ACAD
1000
SansSerif
1071
      514
  0
STYLE
  5
587
330
3
100
AcDbSymbolTableRecord
100
AcDbTextStyleTableRecord
  2
Title
 70
     0
 40
0.09375
 41
1.0
 50
0.0
 71
     0
 42
0.09375
  3
times.ttf
  4

1001
ACAD
1000
Times New Roman
1071
       18
  0
ENDTAB
  0
TABLE
  2
VIEW
  5
6
330
0
100
AcDbSymbolTable
 70
     0
  0
ENDTAB
  0
TABLE
  2
UCS
  5
7
330
0
100
AcDbSymbolTable
 70
     0
  0
ENDTAB
  0
TABLE
  2
APPID
  5
9
330
0
100
AcDbSymbolTable
 70
    27
  0
APPID
  5
12
330
9
100
AcDbSymbolTableRecord
100
AcDbRegAppTableRecord
  2
ACAD
 70
     0
  0
APPID
  5
DD
330
9
100
AcDbSymbolTableRecord
100
AcDbRegAppTableRecord
  2
AcadAnnoPO
 70
     0
  0
APPID
  5
DE
330
9
100
AcDbSymbolTableRecord
100
AcDbRegAppTableRecord
  2
AcadAnnotative
 70
     0
  0
APPID
  5
DF
330
9
100
AcDbSymbolTableRecord
100
AcDbRegAppTableRecord
  2
ACAD_DSTYLE_DIMJAG
 70
     0
  0
APPID
  5
E0
330
9
100
AcDbSymbolTableRecord
100
AcDbRegAppTableRecord
  2
ACAD_DSTYLE_DIMTALN
 70
     0
  0
APPID
  5
107
330
9
100
AcDbSymbolTableRecord
100
AcDbRegAppTableRecord
  2
ACAD_MLEADERVER
 70
     0
  0
APPID
  5
1A6
330
9
100
AcDbSymbolTableRecord
100
AcDbRegAppTableRecord
  2
ACAD_NAV_VCDISPLAY
 70
     0
  0
APPID
  5
213
330
9
100
AcDbSymbolTableRecord
100
AcDbRegAppTableRecord
  2
MCAD_NO_VIS
 70
     0
  0
APPID
  5
214
330
9
100
AcDbSymbolTableRecord
100
AcDbRegAppTableRecord
  2
ACAD_TEMP_GRAPHIC
 70
     0
  0
APPID
  5
221
330
9
100
AcDbSymbolTableRecord
100
AcDbRegAppTableRecord
  2
ACATTRIBSERVICES
 70
     0
  0
APPID
  5
239
330
9
100
AcDbSymbolTableRecord
100
AcDbRegAppTableRecord
  2
DESIGNERASSEMBLIES
 70
     0
  0
APPID
  5
24E
330
9
100
AcDbSymbolTableRecord
100
AcDbRegAppTableRecord
  2
ACAD_DSTYLE_DIMBREAK
 70
     0
  0
APPID
  5
293
330
9
100
AcDbSymbolTableRecord
100
AcDbRegAppTableRecord
  2
ACAD_PSEXT
 70
     0
  0
APPID
  5
403
330
9
100
AcDbSymbolTableRecord
100
AcDbRegAppTableRecord
  2
AcAecLayerStandard
 70
     0
  0
APPID
  5
40F
330
9
100
AcDbSymbolTableRecord
100
AcDbRegAppTableRecord
  2
ACAD_EXEMPT_FROM_CAD_STANDARDS
 70
     0
  0
APPID
  5
41B
330
9
100
AcDbSymbolTableRecord
100
AcDbRegAppTableRecord
  2
GENIUS_GENREC_14
 70
     0
  0
APPID
  5
41C
330
9
100
AcDbSymbolTableRecord
100
AcDbRegAppTableRecord
  2
GENIUS_GENOBJ-N-REC_13
 70
     0
  0
APPID
  5
41D
330
9
100
AcDbSymbolTableRecord
100
AcDbRegAppTableRecord
  2
GENIUS_GENODEF_13
 70
     0
  0
APPID
  5
426
330
9
100
AcDbSymbolTableRecord
100
AcDbRegAppTableRecord
  2
GradientColor1ACI
 70
     0
  0
APPID
  5
588
330
9
100
AcDbSymbolTableRecord
100
AcDbRegAppTableRecord
  2
AcCmTransparency
 70
     0
  0
APPID
  5
594
330
9
100
AcDbSymbolTableRecord
100
AcDbRegAppTableRecord
  2
ACDBBLOCKREPETAG
 70
     0
  0
APPID
  5
5C3
330
9
100
AcDbSymbolTableRecord
100
AcDbRegAppTableRecord
  2
GENIUS_GENSCREG_15
 70
     0
  0
APPID
  5
5C4
330
9
100
AcDbSymbolTableRecord
100
AcDbRegAppTableRecord
  2
GENIUS_GENOBJ-N-SDF_13
 70
     0
  0
APPID
  5
5E6
330
9
100
AcDbSymbolTableRecord
100
AcDbRegAppTableRecord
  2
GradientColor2ACI
 70
     0
  0
APPID
  5
E42
330
9
100
AcDbSymbolTableRecord
100
AcDbRegAppTableRecord
  2
PE_URL
 70
     0
  0
APPID
  5
12C0
330
9
100
AcDbSymbolTableRecord
100
AcDbRegAppTableRecord
  2
AcDbDynamicBlockGUID
 70
     0
  0
APPID
  5
204C
330
9
100
AcDbSymbolTableRecord
100
AcDbRegAppTableRecord
  2
AcadAnnoMonitorAlertIconDisabled
 70
     0
  0
ENDTAB
  0
TABLE
  2
DIMSTYLE
  5
A
330
0
100
AcDbSymbolTable
 70
     8
100
AcDbDimStyleTable
 71
     3
340
24D
340
27
340
E1
  0
DIMSTYLE
105
27
330
A
100
AcDbSymbolTableRecord
100
AcDbDimStyleTableRecord
  2
Standard
 70
     0
340
11
  0
DIMSTYLE
105
E1
330
A
100
AcDbSymbolTableRecord
100
AcDbDimStyleTableRecord
  2
Annotative
 70
     0
 40
0.0
340
11
1001
AcadAnnotative
1000
AnnotativeData
1002
{
1070
     1
1070
     1
1002
}
1001
ACAD_DSTYLE_DIMJAG
1070
   388
1040
1.5
1001
ACAD_DSTYLE_DIMTALN
1070
   392
1070
     0
  0
DIMSTYLE
105
24D
102
{ACAD_REACTORS
330
23D
330
1FAF
102
}
330
A
100
AcDbSymbolTableRecord
100
AcDbDimStyleTableRecord
  2
AM_ANSI
 70
     0
  4
mm
 41
0.12
 42
0.05
 43
0.5
 44
0.1
 47
0.1
 48
0.1
 78
     7
 79
     2
 90
     1
140
0.12
141
0.0
146
0.71
147
0.06
176
   256
177
   256
178
     2
274
     4
284
     7
340
11
345
14
346
14
347
14
371
    -1
372
    -1
1001
ACAD_DSTYLE_DIMJAG
1070
   388
1040
1.5
1001
ACAD_DSTYLE_DIMBREAK
1070
   391
1040
0.125
  0
DIMSTYLE
105
25C
330
A
100
AcDbSymbolTableRecord
100
AcDbDimStyleTableRecord
  2
AM_ANSI$3
 70
     0
  4
mm
 41
0.12
 42
0.05
 43
0.5
 44
0.1
 47
0.1
 48
0.1
 78
     7
 79
     2
 90
     1
140
0.12
141
0.0
146
0.71
147
0.06
176
   256
177
   256
178
     2
274
     4
284
     7
288
     1
289
     0
340
11
345
14
346
14
347
14
371
    -1
372
    -1
1001
ACAD_DSTYLE_DIMBREAK
1070
   391
1040
0.125
1001
ACAD_DSTYLE_DIMJAG
1070
   388
1040
1.5
  0
DIMSTYLE
105
25D
330
A
100
AcDbSymbolTableRecord
100
AcDbDimStyleTableRecord
  2
AM_ANSI$4
 70
     0
  4
mm
 41
0.12
 42
0.05
 43
0.5
 44
0.1
 47
0.1
 48
0.1
 78
     7
 79
     2
 90
     1
140
0.12
141
0.0
146
0.71
147
0.06
176
   256
177
   256
178
     2
274
     4
284
     7
288
     1
289
     0
340
11
345
14
346
14
347
14
371
    -1
372
    -1
1001
ACAD_DSTYLE_DIMBREAK
1070
   391
1040
0.125
1001
ACAD_DSTYLE_DIMJAG
1070
   388
1040
1.5
  0
DIMSTYLE
105
25E
330
A
100
AcDbSymbolTableRecord
100
AcDbDimStyleTableRecord
  2
AM_ANSI$7
 70
     0
  4
mm
 41
0.12
 42
0.05
 43
0.5
 44
0.1
 47
0.1
 48
0.1
 78
     7
 79
     2
 90
     1
140
0.12
141
0.0
146
0.71
147
0.06
176
   256
177
   256
178
     2
274
     4
284
     7
340
11
345
14
346
14
347
14
371
    -1
372
    -1
1001
ACAD_DSTYLE_DIMBREAK
1070
   391
1040
0.125
1001
ACAD_DSTYLE_DIMJAG
1070
   388
1040
1.5
  0
DIMSTYLE
105
25F
330
A
100
AcDbSymbolTableRecord
100
AcDbDimStyleTableRecord
  2
AM_ANSI$SF
 70
     0
  4
mm
 41
0.12
 42
0.05
 43
0.5
 44
0.1
 47
0.1
 48
0.1
 75
     1
 76
     1
 78
     7
 79
     2
 90
     1
140
0.12
141
0.0
146
0.71
147
0.06
176
   256
177
   256
178
     2
274
     4
284
     7
340
11
345
14
346
14
347
14
371
    -1
372
    -1
1001
ACAD_DSTYLE_DIMBREAK
1070
   391
1040
0.125
1001
ACAD_DSTYLE_DIMJAG
1070
   388
1040
1.5
  0
DIMSTYLE
105
264
330
A
100
AcDbSymbolTableRecord
100
AcDbDimStyleTableRecord
  2
AM_ANSI$SH
 70
     0
  4
mm
 41
0.12
 42
0.05
 43
0.5
 44
0.1
 47
0.1
 48
0.1
 75
     1
 76
     1
 78
     7
 79
     2
 90
     1
140
0.12
141
0.0
146
0.71
147
0.06
173
     1
176
   256
177
   256
178
     2
274
     4
284
     7
340
11
343
260
345
14
346
14
347
14
371
    -1
372
    -1
1001
ACAD_DSTYLE_DIMBREAK
1070
   391
1040
0.125
1001
ACAD_DSTYLE_DIMJAG
1070
   388
1040
1.5
  0
ENDTAB
  0
TABLE
  2
BLOCK_RECORD
  5
1
330
0
100
AcDbSymbolTable
 70
     6
  0
BLOCK_RECORD
  5
1F
102
{ACAD_XDICTIONARY
360
15D
102
}
330
1
100
AcDbSymbolTableRecord
100
AcDbBlockTableRecord
  2
*Model_Space
340
22
 70
     0
280
     1
281
     0
  0
BLOCK_RECORD
  5
58
102
{ACAD_XDICTIONARY
360
AB7
102
}
330
1
100
AcDbSymbolTableRecord
100
AcDbBlockTableRecord
  2
*Paper_Space
340
59
 70
     0
280
     1
281
     0
  0
BLOCK_RECORD
  5
231
330
1
100
AcDbSymbolTableRecord
100
AcDbBlockTableRecord
  2
*U0
340
0
 70
     0
280
     1
281
     0
  0
BLOCK_RECORD
  5
260
330
1
100
AcDbSymbolTableRecord
100
AcDbBlockTableRecord
  2
GENAXEH
340
0
 70
     0
280
     1
281
     0
  0
BLOCK_RECORD
  5
26E
330
1
100
AcDbSymbolTableRecord
100
AcDbBlockTableRecord
  2
_ACMFILLEDHALF
340
0
 70
     0
280
     1
281
     0
  0
BLOCK_RECORD
  5
1217
330
1
100
AcDbSymbolTableRecord
100
AcDbBlockTableRecord
  2
_ArchTick
340
0
 70
     0
280
     1
281
     0
  0
BLOCK_RECORD
  5
121B
102
{ACAD_XDICTIONARY
360
121C
102
}
330
1
100
AcDbSymbolTableRecord
100
AcDbBlockTableRecord
  2
#10 W #8 HEAD
340
0
310
28000000200000002000000001002000000000000010000001000000010000000000000000000000FFFFFFFFFFFFFFFFFFFFFFFFFFFFFFFFFFFFFFFFFFFFFFFFFFFFFFFFFFFFFFFFFFFFFFFFFFFFFFFFFFFFFFFFFFFFFFFFFFFFFFFFFFFFFFFFFFFFFFFFFFFFFFFFFFFFFFFFFFFFFFFFFFFFFFFFFFFFFFFFFFFFFFFFFFFFFF
310
FFFFFFFFFFFFFFFFFFFFFFFFFFFFFFFFFFFFFFFFFFFFFFFFFFFFFFFFFFFFFFFFFFFFFFFFFFFFFFFFFFFFFFFFFFFFFFFFFFFFFFFFFFFFFFFFFFFFFFFFFFFFFFFFFFFFFFFFFFFFFFFFFFFFFFFFFFFFFFFFFFFFFFFFFFFFFFFFFFFFFFFFFFFFFFFFFFFFFFFFFF808080FF808080FFFFFFFFFFFFFFFFFFFFFFFFFFFFFFFFFFFFFF
310
FFFFFFFFFFFFFFFFFFFFFFFFFFFFFFFFFFFFFFFFFFFFFFFFFFFFFFFFFFFFFFFFFFFFFFFFFFFFFFFFFFFFFFFFFFFFFFFFFFFFFFFFFFFFFFFFFFFFFFFFFFFFFFFFFFFFFFFFFFFFFFFFFFFFFFFFFFFFFFFFFFFFFFFFFFFFFFFFFFFFFFFFFFFFFFFFFFFFFFFFFFFF808080FF808080FFFFFFFFFFFFFFFFFFFFFFFFFFFFFFFFFFFF
310
FFFFFFFFFFFFFFFFFFFFFFFFFFFFFFFFFFFFFFFFFFFFFFFFFFFFFFFFFFFFFFFFFFFFFFFFFFFFFFFFFFFFFFFFFFFFFFFFFFFFFFFFFFFFFFFFFFFFFFFFFFFFFFFFFFFFFFFFFFFFFFFFFFFFFFFFFFFFFFFFFFFFFFFFFFFFFFFFFFFFFFFFFFFFFFFFFFFFFF808080FF808080FF808080FFFFFFFFFFFFFFFFFFFFFFFFFFFFFFFFFF
310
FFFFFFFFFFFFFFFFFFFFFFFFFFFFFFFFFFFFFFFFFFFFFFFFFFFFFFFFFFFFFFFFFFFFFFFFFFFFFFFFFFFFFFFFFFFFFFFFFFFFFFFFFFFFFFFFFFFFFFFFFFFFFFFFFFFFFFFFFFFFFFFFFFFFFFFFFFFFFFFFFFFFFFFFFFFFFFFFFFFFFFFFFFFFFFFFFFFFFFFF808080FF808080FF808080FF808080FFFFFFFFFFFFFFFFFFFFFFFF
310
FFFFFFFFFFFFFFFFFFFFFFFFFFFFFFFFFFFFFFFFFFFFFFFFFFFFFFFFFFFFFFFFFFFFFFFFFFFFFFFFFFFFFFFFFFFFFFFFFFFFFFFFFFFFFFFFFFFFFFFFFFFFFFFFFFFFFFFFFFFFFFFFFFFFFFFFFFFFFFFFFFFFFFFFFFFFFFFFFFFFFFFFFFFFFFFFFFFFFFFFFF808080FF808080FF808080FF808080FFFFFFFFFFFFFFFFFFFFFF
310
FFFFFFFFFFFFFFFFFFFFFFFFFFFFFFFFFFFFFFFFFFFFFFFFFFFFFFFFFFFFFFFFFFFFFFFFFFFFFFFFFFFFFFFFFFFFFFFFFFFFFFFFFFFFFFFFFFFFFFFFFFFFFFFFFFFFFFFFFFFFFFFFFFFFFFFFFFFFFFFFFFFFFFFFFFFFFFFFFFFFFFFFFFFFFFFFFFFFFFFFFFFF808080FF808080FF808080FF808080FFFFFFFFFFFFFFFFFFFF
310
FFFFFFFFFFFFFFFFFFFFFFFFFFFFFFFFFFFFFFFFFFFFFFFFFFFFFFFFFFFFFFFFFFFFFFFFFFFFFFFFFFFFFFFFFFFFFFFFFFFFFFFFFFFFFFFFFFFFFFFFFFFFFFFFFFFFFFFFFFFFFFFFFFFFFFFFFFFFFFFFFFFFFFFFFFFFFFFFFFFFFFFFFFFFFFFFFFFFFFFFFFFFFF808080FF808080FF808080FF808080FFFFFFFFFFFFFFFFFF
310
FFFFFFFFFFFFFFFFFFFFFFFFFFFFFFFFFFFFFFFFFFFFFFFFFFFFFFFFFFFFFFFFFFFFFFFFFFFFFFFFFFFFFFFFFFFFFFFFFFFFFFFFFFFFFFFFFFFFFFFFFFFFFFFFFFFFFFFFFFFFFFFFFFFFFFFFFFFFFFFFFFFFFFFFFFFFFFFFFFFFFFFFFFFFFFFFFFFFFFFFFFFFFFFF808080FF808080FF808080FF808080FFFFFFFFFFFFFFFF
310
FFFFFFFFFFFFFFFFFFFFFFFFFFFFFFFFFFFFFFFFFFFFFFFFFFFFFFFFFFFFFFFFFFFFFFFFFFFFFFFFFFFFFFFFFFFFFFFFFFFFFFFFFFFFFFFFFFFFFFFFFFFFFFFFFFFFFFFFFFFFFFFFFFFFFFFFFFFFFFFFFFFFFFFFFFFFFFFFFFFFFFFFFFFFFFFFFFFFFFFFFFFFFFFFFF808080FF808080FF808080FF808080FFFFFFFFFFFFFF
310
FFFFFFFFFFFFFFFFFFFFFFFFFFFFFFFFFFFFFFFFFFFFFFFFFFFFFFFFFFFFFFFFFFFFFFFFFFFFFFFFFFFFFFFFFFFFFFFFFFFFFFFFFFFFFFFFFFFFFFFFFFFFFFFFFFFFFFFFFFFFFFFFFFFFFFFFFFFFFFFFFFFFFFFFFFFFFFFFFFFFFFFFFFFFFFFFFFFFFFFFFFFFFFFFFFFF808080FF808080FF808080FF808080FFFFFFFFFFFF
310
FFFFFFFFFFFFFFFFFFFFFFFFFFFFFFFFFFFFFFFFFFFFFFFFFFFFFFFFFFFFFFFFFFFFFFFFFFFFFFFFFFFFFFFFFFFFFFFFFFFFFFFFFFFFFFFFFFFFFFFFFFFFFFFFFFFFFFFFFFFFFFFFFFFFFFFFFFFFFFFFFFFFFFFFFFFFFFFFFFFFFFFFFFFFFFFFFFFFFFFFFFFFFFFFFFFFFF808080FF808080FF808080FF808080FFFFFFFFFF
310
FFFFFFFFFFFFFFFFFFFFFFFFFFFFFFFFFFFFFFFFFFFFFFFFFFFFFFFFFFFFFFFFFFFFFFFFFFFFFFFFFFFFFFFFFFFFFFFFFFFFFFFFFFFFFFFFFFFFFFFFFFFFFFFFFFFFFFFFFFFFFFFFFFFFFFFFFFFFFFFFFFFFFFFFFFFFFFFFFFFFFFFFFFFFFFFFFFFFFFFFFFFFFFFFFFFFFFFF808080FF808080FF808080FF808080FFFFFFFF
310
FFFFFFFFFFFFFFFFFFFFFFFFFFFFFFFFFFFFFFFFFFFFFFFFFFFFFFFFFFFFFFFFFFFFFFFFFFFFFFFFFFFFFFFFFFFFFFFFFFFFFFFFFFFFFFFFFFFFFFFFFFFFFFFFFFFFFFFFFFFFFFFFFFFFFFFFFFFFFFFFFFFFFFFFFFFFFFFFFFFFFFFFFFFFFFFFFFFFFFFFFFFFFFFFFFFFFFFFFF808080FF808080FF808080FF808080FFFFFF
310
FFFFFFFFFFFFFFFFFFFFFFFFFFFFFFFFFFFFFFFFFFFFFFFFFFFFFFFFFFFFFFFFFFFFFFFFFFFFFFFFFFFFFFFFFFFFFFFFFFFFFFFFFFFFFFFFFFFFFFFFFFFFFFFFFFFFFFFFFFFFFFFFFFFFFFFFFFFFFFFFFFFFFFFFFFFFFFFFFFFFFFFFFFFFFFFFFFFFFFFFFFFFFFFFFFFFFFFFFFFF808080FF808080FF808080FF808080FFFF
310
FFFFFFFFFFFFFFFFFFFFFFFFFFFFFFFFFFFFFFFFFFFFFFFFFFFFFFFFFFFFFFFFFFFFFFFFFFFFFFFFFFFFFFFFFFFFFFFFFFFFFFFFFFFFFFFFFFFFFFFFFFFFFFFFFFFFFFFFFFFFFFFFFFFFFFFFFFFFFFFFFFFFFFFFFFFFFFFFFFFFFFFFFFFFFFFFFFFFFFFFFFFFFFFFFFFFFFFFFFFFFF808080FF808080FF808080FF808080FF
310
FFFFFFFFFFFFFFFFFFFFFFFFFFFFFFFFFFFFFFFFFFFFFFFFFFFFFFFFFFFFFFFFFFFFFFFFFFFFFFFFFFFFFFFFFFFFFFFFFFFFFFFFFFFFFFFFFFFFFFFFFFFFFFFFFFFFFFFFFFFFFFFFFFFFFFFFFFFFFFFFFFFFFFFFFFFFFFFFFFFFFFFFFFFFFFFFFFFFFFFFFFFFFFFFFFFFFFFFFFFFFFFF808080FF808080FF808080FF808080
310
FFFFFFFFFFFFFFFFFFFFFFFFFFFFFFFFFFFFFFFFFFFFFFFFFFFFFFFFFFFFFFFFFFFFFFFFFFFFFFFFFFFFFFFFFFFFFFFFFFFFFFFFFFFFFFFFFFFFFFFFFFFFFFFFFFFFFFFFFFFFFFFFFFFFFFFFFFFFFFFFFFFFFFFFFFFFFFFFFFFFFFFFFFFFFFFFFFFFFFFFFFFFFFFFFFFFFFFFFFFFFFFFFF808080FF808080FF808080FF8080
310
80FFFFFFFFFFFFFFFFFFFFFFFFFFFFFFFFFFFFFFFFFFFFFFFFFFFFFFFFFFFFFFFFFFFFFFFFFFFFFFFFFFFFFFFFFFFFFFFFFFFFFFFFFFFFFFFFFFFFFFFFFFFFFFFFFFFFFFFFFFFFFFFFFFFFFFFFFFFFFFFFFFFFFFFFFFFFFFFFFFFFFFFFFFFFFFFFFFFFFFFFFFFFFFFFFFFFFFFFFFFFFFFFFF808080FF808080FF808080FF80
310
8080FFFFFFFFFFFFFFFFFFFFFFFFFFFFFFFFFFFFFFFFFFFFFFFFFFFFFFFFFFFFFFFFFFFFFFFFFFFFFFFFFFFFFFFFFFFFFFFFFFFFFFFFFFFFFFFFFFFFFFFFFFFFFFFFFFFFFFFFFFFFFFFFFFFFFFFFFFFFFFFFFFFFFFFFFFFFFFFFFFFFFFFFFFFFFFFFFFFFFFFFFFFFFFFFFFFFFFFFFFFFFFFFFF808080FF808080FF808080FF
310
808080FFFFFFFFFFFFFFFFFFFFFFFFFFFFFFFFFFFFFFFFFFFFFFFFFFFFFFFFFFFFFFFFFFFFFFFFFFFFFFFFFFFFFFFFFFFFFFFFFFFFFFFFFFFFFFFFFFFFFFFFFFFFFFFFFFFFFFFFFFFFFFFFFFFFFFFFFFFFFFFFFFFFFFFFFFFFFFFFFFFFFFFFFFFFFFFFFFFFFFFFFFFFFFFFFFFFFFFFFFFFFFFFFF808080FF808080FF808080
310
FF808080FFFFFFFFFFFFFFFFFFFFFFFFFFFFFFFFFFFFFFFFFFFFFFFFFFFFFFFFFFFFFFFFFFFFFFFFFFFFFFFFFFFFFFFFFFFFFFFFFFFFFFFFFFFFFFFFFFFFFFFFFFFFFFFFFFFFFFFFFFFFFFFFFFFFFFFFFFFFFFFFFFFFFFFFFFFFFFFFFFFFFFFFFFFFFFFFFFFFFFFFFFFFFFFFFFFFFFFFFFFFFFFFFF808080FF808080FF8080
310
80FF808080FFFFFFFFFFFFFFFFFFFFFFFFFFFFFFFFFFFFFFFFFFFFFFFFFFFFFFFFFFFFFFFFFFFFFFFFFFFFFFFFFFFFFFFFFFFFFFFFFFFFFFFFFFFFFFFFFFFFFFFFFFFFFFFFFFFFFFFFFFFFFFFFFFFFFFFFFFFFFFFFFFFFFFFFFFFFFFFFFFFFFFFFFFFFFFFFFFFFFFFFFFFFFFFFFFFFFFFFFFFFFFFFFF808080FF808080FF80
310
8080FF808080FFFFFFFFFFFFFFFFFFFFFFFFFFFFFFFFFFFFFFFFFFFFFFFFFFFFFFFFFFFFFFFFFFFFFFFFFFFFFFFFFFFFFFFFFFFFFFFFFFFFFFFFFFFFFFFFFFFFFFFFFFFFFFFFFFFFFFFFFFFFFFFFFFFFFFFFFFFFFFFFFFFFFFFFFFFFFFFFFFFFFFFFFFFFFFFFFFFFFFFFFFFFFFFFFFFFFFFFFFFFFFFFFF808080FF808080FF
310
808080FF808080FFFFFFFFFFFFFFFFFFFFFFFFFFFFFFFFFFFFFFFFFFFFFFFFFFFFFFFFFFFFFFFFFFFFFFFFFFFFFFFFFFFFFFFFFFFFFFFFFFFFFFFFFFFFFFFFFFFFFFFFFFFFFFFFFFFFFFFFFFFFFFFFFFFFFFFFFFFFFFFFFFFFFFFFFFFFFFFFFFFFFFFFFFFFFFFFFFFFFFFFFFFFFFFFFFFFFFFFFFFFFFFFFF808080FF808080
310
FF808080FF808080FFFFFFFFFFFFFFFFFFFFFFFFFFFFFFFFFFFFFFFFFFFFFFFFFFFFFFFFFFFFFFFFFFFFFFFFFFFFFFFFFFFFFFFFFFFFFFFFFFFFFFFFFFFFFFFFFFFFFFFFFFFFFFFFFFFFFFFFFFFFFFFFFFFFFFFFFFFFFFFFFFFFFFFFFFFFFFFFFFFFFFFFFFFFFFFFFFFFFFFFFFFFFFFFFFFFFFFFFFFFFFFFFF808080FF8080
310
80FF808080FF808080FFFFFFFFFFFFFFFFFFFFFFFFFFFFFFFFFFFFFFFFFFFFFFFFFFFFFFFFFFFFFFFFFFFFFFFFFFFFFFFFFFFFFFFFFFFFFFFFFFFFFFFFFFFFFFFFFFFFFFFFFFFFFFFFFFFFFFFFFFFFFFFFFFFFFFFFFFFFFFFFFFFFFFFFFFFFFFFFFFFFFFFFFFFFFFFFFFFFFFFFFFFFFFFFFFFFFFFFFFFFFFFFFF808080FF80
310
8080FF808080FF808080FFFFFFFFFFFFFFFFFFFFFFFFFFFFFFFFFFFFFFFFFFFFFFFFFFFFFFFFFFFFFFFFFFFFFFFFFFFFFFFFFFFFFFFFFFFFFFFFFFFFFFFFFFFFFFFFFFFFFFFFFFFFFFFFFFFFFFFFFFFFFFFFFFFFFFFFFFFFFFFFFFFFFFFFFFFFFFFFFFFFFFFFFFFFFFFFFFFFFFFFFFFFFFFFFFFFFFFFFFFFFFFFFF808080FF
310
808080FF808080FF808080FFFFFFFFFFFFFFFFFFFFFFFFFFFFFFFFFFFFFFFFFFFFFFFFFFFFFFFFFFFFFFFFFFFFFFFFFFFFFFFFFFFFFFFFFFFFFFFFFFFFFFFFFFFFFFFFFFFFFFFFFFFFFFFFFFFFFFFFFFFFFFFFFFFFFFFFFFFFFFFFFFFFFFFFFFFFFFFFFFFFFFFFFFFFFFFFFFFFFFFFFFFFFFFFFFFFFFFFFF808080FF808080
310
FF808080FF808080FF808080FF808080FFFFFFFFFFFFFFFFFFFFFFFFFFFFFFFFFFFFFFFFFFFFFFFFFFFFFFFFFFFFFFFFFFFFFFFFFFFFFFFFFFFFFFFFFFFFFFFFFFFFFFFFFFFFFFFFFFFFFFFFFFFFFFFFFFFFFFFFFFFFFFFFFFFFFFFFFFFFFFFFFFFFFFFFFFFFFFFFFFFFFFFFFFFFFFFFFFFFFFFFFFFFFFFFFF808080FF8080
310
80FF808080FF808080FF808080FF808080FFFFFFFFFFFFFFFFFFFFFFFFFFFFFFFFFFFFFFFFFFFFFFFFFFFFFFFFFFFFFFFFFFFFFFFFFFFFFFFFFFFFFFFFFFFFFFFFFFFFFFFFFFFFFFFFFFFFFFFFFFFFFFFFFFFFFFFFFFFFFFFFFFFFFFFFFFFFFFFFFFFFFFFFFFFFFFFFFFFFFFFFFFFFFFFFFFFFFFFFFFFFFFFFFFFFFFFFFFFF
310
FFFFFF808080FF808080FFFFFFFFFFFFFFFFFFFFFFFFFFFFFFFFFFFFFFFFFFFFFFFFFFFFFFFFFFFFFFFFFFFFFFFFFFFFFFFFFFFFFFFFFFFFFFFFFFFFFFFFFFFFFFFFFFFFFFFFFFFFFFFFFFFFFFFFFFFFFFFFFFFFFFFFFFFFFFFFFFFFFFFFFFFFFFFFFFFFFFFFFFFFFFFFFFFFFFFFFFFFFFFFFFFFFFFFFFFFFFFFFFFFFFFFFF
310
FFFFFFFFFFFFFFFFFFFFFFFFFFFFFFFFFFFFFFFFFFFFFFFFFFFFFFFFFFFFFFFFFFFFFFFFFFFFFFFFFFFFFFFFFFFFFFFFFFFFFFFFFFFFFFFFFFFFFFFFFFFFFFFFFFFFFFFFFFFFFFFF
 70
     1
280
     1
281
     0
1001
AcDbDynamicBlockGUID
1000
{3265CE84-6709-7240-AA68-B23440B97AE8}
  0
BLOCK_RECORD
  5
1FB1
330
1
100
AcDbSymbolTableRecord
100
AcDbBlockTableRecord
  2
*D5
340
0
 70
     0
280
     1
281
     0
  0
ENDTAB
  0
ENDSEC
  0
SECTION
  2
BLOCKS
  0
BLOCK
  5
20
330
1F
100
AcDbEntity
  8
0
100
AcDbBlockBegin
  2
*Model_Space
 70
     0
 10
0.0
 20
0.0
 30
0.0
  3
*Model_Space
  1

  0
ENDBLK
  5
21
330
1F
100
AcDbEntity
  8
0
100
AcDbBlockEnd
  0
BLOCK
  5
5A
330
58
100
AcDbEntity
 67
     1
  8
0
100
AcDbBlockBegin
  2
*Paper_Space
 70
     0
 10
0.0
 20
0.0
 30
0.0
  3
*Paper_Space
  1

  0
ENDBLK
  5
5B
330
58
100
AcDbEntity
 67
     1
  8
0
100
AcDbBlockEnd
  0
BLOCK
  5
232
330
231
100
AcDbEntity
  8
0
100
AcDbBlockBegin
  2
*U0
 70
     1
 10
0.0
 20
0.0
 30
0.0
  3
*U0
  1

  0
ENDBLK
  5
233
330
231
100
AcDbEntity
  8
0
100
AcDbBlockEnd
  0
BLOCK
  5
262
330
260
100
AcDbEntity
  8
0
100
AcDbBlockBegin
  2
GENAXEH
 70
     0
 10
0.0
 20
0.0
 30
0.0
  3
GENAXEH
  1

  0
LINE
  5
261
330
260
100
AcDbEntity
  8
0
100
AcDbLine
 10
-1.0
 20
0.0
 30
0.0
 11
1.0
 21
0.0
 31
0.0
  0
ENDBLK
  5
263
330
260
100
AcDbEntity
  8
0
100
AcDbBlockEnd
  0
BLOCK
  5
26F
330
26E
100
AcDbEntity
  8
0
100
AcDbBlockBegin
  2
_ACMFILLEDHALF
 70
     0
 10
0.0
 20
0.0
 30
0.0
  3
_ACMFILLEDHALF
  1

  0
TRACE
  5
271
330
26E
100
AcDbEntity
  8
0
 62
     0
100
AcDbTrace
 10
-0.8
 20
0.0
 30
0.0
 11
-1.0
 21
0.166666666
 31
0.0
 12
0.0
 22
0.0
 32
0.0
 13
0.0
 23
0.0
 33
0.0
  0
LINE
  5
272
330
26E
100
AcDbEntity
  8
0
 62
     0
100
AcDbLine
 10
-1.0
 20
0.0
 30
0.0
 11
-0.8
 21
0.0
 31
0.0
  0
ENDBLK
  5
270
330
26E
100
AcDbEntity
  8
0
100
AcDbBlockEnd
  0
BLOCK
  5
1218
330
1217
100
AcDbEntity
  8
0
100
AcDbBlockBegin
  2
_ArchTick
 70
     0
 10
0.0
 20
0.0
 30
0.0
  3
_ArchTick
  1

  0
LWPOLYLINE
  5
1219
330
1217
100
AcDbEntity
  8
0
  6
ByBlock
 62
     0
100
AcDbPolyline
 90
        2
 70
     0
 43
0.15
 10
-0.5
 20
-0.5
 10
0.5
 20
0.5
  0
ENDBLK
  5
121A
330
1217
100
AcDbEntity
  8
0
100
AcDbBlockEnd
  0
BLOCK
  5
121D
330
121B
100
AcDbEntity
  8
0
100
AcDbBlockBegin
  2
#10 W #8 HEAD
 70
     0
 10
0.0
 20
0.0
 30
0.0
  3
#10 W #8 HEAD
  1

  0
LINE
  5
121E
330
121B
100
AcDbEntity
  8
SCREW
100
AcDbLine
 10
21.81260714856896
 20
5.009847610514247
 30
0.0
 11
21.96578378692021
 21
5.07503547330924
 31
0.0
  0
LINE
  5
121F
330
121B
100
AcDbEntity
  8
SCREW
100
AcDbLine
 10
21.80186283658207
 20
5.031815237283202
 30
0.0
 11
21.95622097128703
 21
5.097505913190074
 31
0.0
  0
LINE
  5
1220
330
121B
100
AcDbEntity
  8
SCREW
100
AcDbLine
 10
21.81260714856896
 20
4.939008211491966
 30
0.0
 11
21.96578378692021
 21
5.004196074286959
 31
0.0
  0
LINE
  5
1221
330
121B
100
AcDbEntity
  8
SCREW
100
AcDbLine
 10
21.80186283658207
 20
4.960975838260919
 30
0.0
 11
21.95622097128703
 21
5.026666514167793
 31
0.0
  0
LINE
  5
1222
330
121B
100
AcDbEntity
  8
SCREW
100
AcDbLine
 10
21.81260714856896
 20
4.868168812469685
 30
0.0
 11
21.96578378692021
 21
4.933356675264677
 31
0.0
  0
LINE
  5
1223
330
121B
100
AcDbEntity
  8
SCREW
100
AcDbLine
 10
21.80186283658207
 20
4.890136439238636
 30
0.0
 11
21.95622097128703
 21
4.955827115145511
 31
0.0
  0
LINE
  5
1224
330
121B
100
AcDbEntity
  8
SCREW
100
AcDbLine
 10
21.81260714856896
 20
4.797329413447402
 30
0.0
 11
21.96578378692021
 21
4.862517276242394
 31
0.0
  0
LINE
  5
1225
330
121B
100
AcDbEntity
  8
SCREW
100
AcDbLine
 10
21.80186283658207
 20
4.819297040216355
 30
0.0
 11
21.95622097128703
 21
4.884987716123228
 31
0.0
  0
LINE
  5
1226
330
121B
100
AcDbEntity
  8
SCREW
100
AcDbLine
 10
21.81260714856896
 20
4.726490014425118
 30
0.0
 11
21.96578378692021
 21
4.791677877220111
 31
0.0
  0
LINE
  5
1227
330
121B
100
AcDbEntity
  8
SCREW
100
AcDbLine
 10
21.80186283658207
 20
4.748457641194073
 30
0.0
 11
21.95622097128703
 21
4.814148317100945
 31
0.0
  0
LINE
  5
1228
330
121B
100
AcDbEntity
  8
SCREW
100
AcDbLine
 10
21.81260714856896
 20
4.655650615402837
 30
0.0
 11
21.96578378692021
 21
4.720838478197832
 31
0.0
  0
LINE
  5
1229
330
121B
100
AcDbEntity
  8
SCREW
100
AcDbLine
 10
21.80186283658207
 20
4.67761824217179
 30
0.0
 11
21.95622097128703
 21
4.743308918078666
 31
0.0
  0
LINE
  5
122A
330
121B
100
AcDbEntity
  8
SCREW
100
AcDbLine
 10
21.81260714856896
 20
4.584811216380556
 30
0.0
 11
21.96578378692021
 21
4.649999079175548
 31
0.0
  0
LINE
  5
122B
330
121B
100
AcDbEntity
  8
SCREW
100
AcDbLine
 10
21.80186283658207
 20
4.606778843149509
 30
0.0
 11
21.95622097128703
 21
4.672469519056383
 31
0.0
  0
LINE
  5
122C
330
121B
100
AcDbEntity
  8
SCREW
100
AcDbLine
 10
21.81260714856896
 20
4.513971817358273
 30
0.0
 11
21.96578378692021
 21
4.579159680153265
 31
0.0
  0
LINE
  5
122D
330
121B
100
AcDbEntity
  8
SCREW
100
AcDbLine
 10
21.80186283658207
 20
4.535939444127226
 30
0.0
 11
21.95622097128703
 21
4.6016301200341
 31
0.0
  0
LINE
  5
122E
330
121B
100
AcDbEntity
  8
SCREW
100
AcDbLine
 10
21.81260714856896
 20
3.80557782713538
 30
0.0
 11
21.96578378692021
 21
3.870765689930372
 31
0.0
  0
LINE
  5
122F
330
121B
100
AcDbEntity
  8
SCREW
100
AcDbLine
 10
21.80186283658207
 20
3.827545453904333
 30
0.0
 11
21.95622097128703
 21
3.893236129811207
 31
0.0
  0
LINE
  5
1230
330
121B
100
AcDbEntity
  8
SCREW
100
AcDbLine
 10
21.81260714856896
 20
3.734738428113097
 30
0.0
 11
21.96578378692021
 21
3.79992629090809
 31
0.0
  0
LINE
  5
1231
330
121B
100
AcDbEntity
  8
SCREW
100
AcDbLine
 10
21.80186283658207
 20
3.756706054882051
 30
0.0
 11
21.95622097128703
 21
3.822396730788924
 31
0.0
  0
LINE
  5
1232
330
121B
100
AcDbEntity
  8
SCREW
100
AcDbLine
 10
21.81260714856896
 20
3.663899029090816
 30
0.0
 11
21.96578378692021
 21
3.729086891885809
 31
0.0
  0
LINE
  5
1233
330
121B
100
AcDbEntity
  8
SCREW
100
AcDbLine
 10
21.80186283658207
 20
3.685866655859769
 30
0.0
 11
21.95622097128703
 21
3.751557331766643
 31
0.0
  0
LINE
  5
1234
330
121B
100
AcDbEntity
  8
SCREW
100
AcDbLine
 10
21.81260714856896
 20
3.593059630068533
 30
0.0
 11
21.96578378692021
 21
3.658247492863526
 31
0.0
  0
LINE
  5
1235
330
121B
100
AcDbEntity
  8
SCREW
100
AcDbLine
 10
21.80186283658207
 20
3.615027256837486
 30
0.0
 11
21.95622097128703
 21
3.68071793274436
 31
0.0
  0
LINE
  5
1236
330
121B
100
AcDbEntity
  8
SCREW
100
AcDbLine
 10
21.81260714856894
 20
3.381433846310281
 30
0.0
 11
21.9657837869202
 21
3.446621709105274
 31
0.0
  0
LINE
  5
1237
330
121B
100
AcDbEntity
  8
SCREW
100
AcDbLine
 10
21.80186283658205
 20
3.403401473079235
 30
0.0
 11
21.95622097128701
 21
3.469092148986108
 31
0.0
  0
LINE
  5
1238
330
121B
100
AcDbEntity
  8
SCREW
100
AcDbLine
 10
21.82045207146392
 20
5.077067634417108
 30
0.0
 11
21.82045207146392
 21
5.039726316322317
 31
0.0
  0
LINE
  5
1239
330
121B
100
AcDbEntity
  8
SCREW
100
AcDbLine
 10
21.82045207146392
 20
5.013186198975386
 30
0.0
 11
21.82045207146392
 21
4.96888691730003
 31
0.0
  0
ARC
  5
123A
330
121B
100
AcDbEntity
  8
SCREW
100
AcDbCircle
 10
21.57762887921978
 20
4.997595711984443
 30
0.0
 40
0.2554973368682796
100
AcDbArc
 50
18.12239606593879
 51
24.6596721759492
  0
ARC
  5
123B
330
121B
100
AcDbEntity
  8
SCREW
100
AcDbCircle
 10
21.80723499257551
 20
5.020831423898725
 30
0.0
 40
0.0122271916842302
100
AcDbArc
 50
110.0434587331205
 51
296.0631427173529
  0
LINE
  5
123C
330
121B
100
AcDbEntity
  8
SCREW
100
AcDbLine
 10
21.96083381776741
 20
5.027886293104623
 30
0.0
 11
21.96083381776742
 21
5.072928899399252
 31
0.0
  0
LINE
  5
123D
330
121B
100
AcDbEntity
  8
SCREW
100
AcDbLine
 10
21.96083381776742
 20
5.098725692126905
 30
0.0
 11
21.96083381776742
 21
5.104196230643454
 31
0.0
  0
ARC
  5
123E
330
121B
100
AcDbEntity
  8
SCREW
100
AcDbCircle
 10
21.96159312728031
 20
5.086522099805522
 30
0.0
 40
0.0122271916842302
100
AcDbArc
 50
290.0434587308119
 51
116.063142715918
  0
ARC
  5
123F
330
121B
100
AcDbEntity
  8
SCREW
100
AcDbCircle
 10
21.80723499257551
 20
4.949992024876442
 30
0.0
 40
0.0122271916842302
100
AcDbArc
 50
110.0434587331205
 51
296.0631427173529
  0
ARC
  5
1240
330
121B
100
AcDbEntity
  8
SCREW
100
AcDbCircle
 10
21.96159312728031
 20
5.015682700783239
 30
0.0
 40
0.0122271916842302
100
AcDbArc
 50
290.0434587308119
 51
116.063142715918
  0
ARC
  5
1241
330
121B
100
AcDbEntity
  8
SCREW
100
AcDbCircle
 10
21.88403440517145
 20
3.247394070417191
 30
0.0
 40
0.0161267757294318
100
AcDbArc
 50
270.0
 51
0.0000000000170987
  0
ARC
  5
1242
330
121B
100
AcDbEntity
  8
SCREW
100
AcDbCircle
 10
21.33804971470228
 20
3.135782285700766
 30
0.0
 40
0.5414855494839421
100
AcDbArc
 50
11.89515533568119
 51
27.01509925826169
  0
ARC
  5
1243
330
121B
100
AcDbEntity
  8
SCREW
100
AcDbCircle
 10
21.88403440517145
 20
3.247394070417191
 30
0.0
 40
0.0161267757294318
100
AcDbArc
 50
179.9999999999829
 51
270.0
  0
ARC
  5
1244
330
121B
100
AcDbEntity
  8
SCREW
100
AcDbCircle
 10
22.43001909564061
 20
3.135782285700766
 30
0.0
 40
0.5414855494839421
100
AcDbArc
 50
150.0518963641911
 51
168.1048446643186
  0
LINE
  5
1245
330
121B
100
AcDbEntity
  8
SCREW
100
AcDbLine
 10
21.82045207146392
 20
4.942346799953105
 30
0.0
 11
21.82045207146392
 21
4.898047518277747
 31
0.0
  0
LINE
  5
1246
330
121B
100
AcDbEntity
  8
SCREW
100
AcDbLine
 10
21.96083381776741
 20
4.95704689408234
 30
0.0
 11
21.96083381776742
 21
5.002089500376971
 31
0.0
  0
ARC
  5
1247
330
121B
100
AcDbEntity
  8
SCREW
100
AcDbCircle
 10
21.80723499257551
 20
4.87915262585416
 30
0.0
 40
0.0122271916842302
100
AcDbArc
 50
110.0434587331205
 51
296.0631427173529
  0
ARC
  5
1248
330
121B
100
AcDbEntity
  8
SCREW
100
AcDbCircle
 10
21.96159312728031
 20
4.944843301760956
 30
0.0
 40
0.0122271916842302
100
AcDbArc
 50
290.0434587308119
 51
116.063142715918
  0
LINE
  5
1249
330
121B
100
AcDbEntity
  8
SCREW
100
AcDbLine
 10
21.82045207146392
 20
4.871507400930822
 30
0.0
 11
21.82045207146392
 21
4.827208119255464
 31
0.0
  0
LINE
  5
124A
330
121B
100
AcDbEntity
  8
SCREW
100
AcDbLine
 10
21.96083381776741
 20
4.886207495060059
 30
0.0
 11
21.96083381776742
 21
4.93125010135469
 31
0.0
  0
ARC
  5
124B
330
121B
100
AcDbEntity
  8
SCREW
100
AcDbCircle
 10
21.80723499257551
 20
4.808313226831879
 30
0.0
 40
0.0122271916842302
100
AcDbArc
 50
110.0434587331205
 51
296.0631427173529
  0
ARC
  5
124C
330
121B
100
AcDbEntity
  8
SCREW
100
AcDbCircle
 10
21.96159312728031
 20
4.874003902738676
 30
0.0
 40
0.0122271916842302
100
AcDbArc
 50
290.0434587308119
 51
116.063142715918
  0
LINE
  5
124D
330
121B
100
AcDbEntity
  8
SCREW
100
AcDbLine
 10
21.82045207146392
 20
4.800668001908539
 30
0.0
 11
21.82045207146392
 21
4.756368720233185
 31
0.0
  0
LINE
  5
124E
330
121B
100
AcDbEntity
  8
SCREW
100
AcDbLine
 10
21.96083381776741
 20
4.815368096037778
 30
0.0
 11
21.96083381776742
 21
4.860410702332407
 31
0.0
  0
ARC
  5
124F
330
121B
100
AcDbEntity
  8
SCREW
100
AcDbCircle
 10
21.80723499257551
 20
4.737473827809596
 30
0.0
 40
0.0122271916842302
100
AcDbArc
 50
110.0434587331205
 51
296.0631427173529
  0
ARC
  5
1250
330
121B
100
AcDbEntity
  8
SCREW
100
AcDbCircle
 10
21.96159312728031
 20
4.803164503716393
 30
0.0
 40
0.0122271916842302
100
AcDbArc
 50
290.0434587308119
 51
116.063142715918
  0
LINE
  5
1251
330
121B
100
AcDbEntity
  8
SCREW
100
AcDbLine
 10
21.82045207146392
 20
4.729828602886259
 30
0.0
 11
21.82045207146392
 21
4.685529321210902
 31
0.0
  0
LINE
  5
1252
330
121B
100
AcDbEntity
  8
SCREW
100
AcDbLine
 10
21.96083381776741
 20
4.744528697015494
 30
0.0
 11
21.96083381776742
 21
4.789571303310124
 31
0.0
  0
ARC
  5
1253
330
121B
100
AcDbEntity
  8
SCREW
100
AcDbCircle
 10
21.80723499257551
 20
4.666634428787315
 30
0.0
 40
0.0122271916842302
100
AcDbArc
 50
110.0434587331205
 51
296.0631427173527
  0
ARC
  5
1254
330
121B
100
AcDbEntity
  8
SCREW
100
AcDbCircle
 10
21.96159312728031
 20
4.73232510469411
 30
0.0
 40
0.0122271916842302
100
AcDbArc
 50
290.0434587308119
 51
116.063142715918
  0
LINE
  5
1255
330
121B
100
AcDbEntity
  8
SCREW
100
AcDbLine
 10
21.82045207146392
 20
4.658989203863976
 30
0.0
 11
21.82045207146392
 21
4.614689922188619
 31
0.0
  0
LINE
  5
1256
330
121B
100
AcDbEntity
  8
SCREW
100
AcDbLine
 10
21.96083381776741
 20
4.673689297993211
 30
0.0
 11
21.96083381776742
 21
4.718731904287842
 31
0.0
  0
ARC
  5
1257
330
121B
100
AcDbEntity
  8
SCREW
100
AcDbCircle
 10
21.80723499257551
 20
4.595795029765032
 30
0.0
 40
0.0122271916842302
100
AcDbArc
 50
110.0434587331205
 51
296.0631427173527
  0
ARC
  5
1258
330
121B
100
AcDbEntity
  8
SCREW
100
AcDbCircle
 10
21.96159312728031
 20
4.661485705671829
 30
0.0
 40
0.0122271916842302
100
AcDbArc
 50
290.0434587308119
 51
116.063142715918
  0
LINE
  5
1259
330
121B
100
AcDbEntity
  8
SCREW
100
AcDbLine
 10
21.82045207146392
 20
4.588149804841693
 30
0.0
 11
21.82045207146392
 21
4.543850523166337
 31
0.0
  0
LINE
  5
125A
330
121B
100
AcDbEntity
  8
SCREW
100
AcDbLine
 10
21.96083381776741
 20
4.60284989897093
 30
0.0
 11
21.96083381776742
 21
4.647892505265561
 31
0.0
  0
ARC
  5
125B
330
121B
100
AcDbEntity
  8
SCREW
100
AcDbCircle
 10
21.80723499257551
 20
4.52495563074275
 30
0.0
 40
0.0122271916842302
100
AcDbArc
 50
110.0434587331205
 51
296.0631427173527
  0
ARC
  5
125C
330
121B
100
AcDbEntity
  8
SCREW
100
AcDbCircle
 10
21.96159312728031
 20
4.590646306649547
 30
0.0
 40
0.0122271916842302
100
AcDbArc
 50
290.0434587308119
 51
116.063142715918
  0
LINE
  5
125D
330
121B
100
AcDbEntity
  8
SCREW
100
AcDbLine
 10
21.82045207146392
 20
3.8797558146188
 30
0.0
 11
21.82045207146392
 21
3.835456532943443
 31
0.0
  0
LINE
  5
125E
330
121B
100
AcDbEntity
  8
SCREW
100
AcDbLine
 10
21.96083381776741
 20
3.894455908748036
 30
0.0
 11
21.96083381776742
 21
3.939498515042667
 31
0.0
  0
ARC
  5
125F
330
121B
100
AcDbEntity
  8
SCREW
100
AcDbCircle
 10
21.80723499257551
 20
3.816561640519856
 30
0.0
 40
0.0122271916842302
100
AcDbArc
 50
110.0434587331205
 51
296.0631427173527
  0
ARC
  5
1260
330
121B
100
AcDbEntity
  8
SCREW
100
AcDbCircle
 10
21.96159312728031
 20
3.882252316426654
 30
0.0
 40
0.0122271916842302
100
AcDbArc
 50
290.0434587308119
 51
116.063142715918
  0
LINE
  5
1261
330
121B
100
AcDbEntity
  8
SCREW
100
AcDbLine
 10
21.82045207146392
 20
3.808916415596518
 30
0.0
 11
21.82045207146392
 21
3.764617133921162
 31
0.0
  0
LINE
  5
1262
330
121B
100
AcDbEntity
  8
SCREW
100
AcDbLine
 10
21.96083381776741
 20
3.823616509725755
 30
0.0
 11
21.96083381776742
 21
3.868659116020385
 31
0.0
  0
ARC
  5
1263
330
121B
100
AcDbEntity
  8
SCREW
100
AcDbCircle
 10
21.80723499257551
 20
3.745722241497574
 30
0.0
 40
0.0122271916842302
100
AcDbArc
 50
110.0434587331205
 51
296.0631427173527
  0
ARC
  5
1264
330
121B
100
AcDbEntity
  8
SCREW
100
AcDbCircle
 10
21.96159312728031
 20
3.81141291740437
 30
0.0
 40
0.0122271916842302
100
AcDbArc
 50
290.0434587308119
 51
116.063142715918
  0
LINE
  5
1265
330
121B
100
AcDbEntity
  8
SCREW
100
AcDbLine
 10
21.82045207146392
 20
3.738077016574235
 30
0.0
 11
21.82045207146392
 21
3.693777734898879
 31
0.0
  0
LINE
  5
1266
330
121B
100
AcDbEntity
  8
SCREW
100
AcDbLine
 10
21.96083381776741
 20
3.752777110703473
 30
0.0
 11
21.96083381776742
 21
3.797819716998103
 31
0.0
  0
ARC
  5
1267
330
121B
100
AcDbEntity
  8
SCREW
100
AcDbCircle
 10
21.80723499257551
 20
3.674882842475292
 30
0.0
 40
0.0122271916842302
100
AcDbArc
 50
110.0434587331205
 51
296.0631427173527
  0
ARC
  5
1268
330
121B
100
AcDbEntity
  8
SCREW
100
AcDbCircle
 10
21.96159312728031
 20
3.740573518382089
 30
0.0
 40
0.0122271916842302
100
AcDbArc
 50
290.0434587308119
 51
116.063142715918
  0
LINE
  5
1269
330
121B
100
AcDbEntity
  8
SCREW
100
AcDbLine
 10
21.82045207146392
 20
3.667237617551953
 30
0.0
 11
21.82045207146392
 21
3.622938335876598
 31
0.0
  0
LINE
  5
126A
330
121B
100
AcDbEntity
  8
SCREW
100
AcDbLine
 10
21.96083381776741
 20
3.68193771168119
 30
0.0
 11
21.96083381776742
 21
3.72698031797582
 31
0.0
  0
ARC
  5
126B
330
121B
100
AcDbEntity
  8
SCREW
100
AcDbCircle
 10
21.80723499257551
 20
3.604043443453011
 30
0.0
 40
0.0122271916842302
100
AcDbArc
 50
110.0434587331205
 51
296.0631427173527
  0
ARC
  5
126C
330
121B
100
AcDbEntity
  8
SCREW
100
AcDbCircle
 10
21.96159312728031
 20
3.669734119359807
 30
0.0
 40
0.0122271916842302
100
AcDbArc
 50
290.0434587308119
 51
116.063142715918
  0
LINE
  5
126D
330
121B
100
AcDbEntity
  8
SCREW
100
AcDbLine
 10
21.82045207146392
 20
3.596398218529672
 30
0.0
 11
21.82045207146392
 21
3.552098936854315
 31
0.0
  0
LINE
  5
126E
330
121B
100
AcDbEntity
  8
SCREW
100
AcDbLine
 10
21.96083381776741
 20
3.611098312658908
 30
0.0
 11
21.96083381776742
 21
3.656140918953538
 31
0.0
  0
LINE
  5
126F
330
121B
100
AcDbEntity
  8
SCREW
100
AcDbLine
 10
21.8204520714639
 20
3.384772434771414
 30
0.0
 11
21.82045207146391
 21
3.381738717799535
 31
0.0
  0
LINE
  5
1270
330
121B
100
AcDbEntity
  8
SCREW
100
AcDbLine
 10
21.96083381776738
 20
3.406100200990893
 30
0.0
 11
21.96083381776739
 21
3.444515135195267
 31
0.0
  0
ARC
  5
1271
330
121B
100
AcDbEntity
  8
SCREW
100
AcDbCircle
 10
21.80723499257549
 20
3.392417659694757
 30
0.0
 40
0.0122271916842302
100
AcDbArc
 50
110.0434587331204
 51
296.0631427173527
  0
ARC
  5
1272
330
121B
100
AcDbEntity
  8
SCREW
100
AcDbCircle
 10
21.96159312728029
 20
3.458108335601554
 30
0.0
 40
0.0122271916842302
100
AcDbArc
 50
290.0434587308119
 51
116.063142715918
  0
LINE
  5
1273
330
121B
100
AcDbEntity
  8
SCREW
100
AcDbLine
 10
21.72426247069396
 20
5.104196230643468
 30
0.0
 11
22.04380633964891
 21
5.104196230643468
 31
0.0
  0
LINE
  5
1274
330
121B
100
AcDbEntity
  8
SCREW
100
AcDbLine
 10
21.72426247069396
 20
5.134070514776121
 30
0.0
 11
22.04380633964892
 21
5.134070514776121
 31
0.0
  0
LINE
  5
1275
330
121B
100
AcDbEntity
  8
SCREW
100
AcDbLine
 10
21.72426247069396
 20
5.134070514776121
 30
0.0
 11
21.72426247069396
 21
5.104196230643472
 31
0.0
  0
ARC
  5
1276
330
121B
100
AcDbEntity
  8
SCREW
100
AcDbCircle
 10
21.88403440517143
 20
4.995677929710909
 30
0.0
 40
0.2113754447605181
100
AcDbArc
 50
40.89872848759142
 51
139.1012715124086
  0
LINE
  5
1277
330
121B
100
AcDbEntity
  8
SCREW
100
AcDbLine
 10
22.04380633964891
 20
5.134070514776121
 30
0.0
 11
22.04380633964892
 21
5.104196230643472
 31
0.0
  0
LINE
  5
1278
330
121B
100
AcDbEntity
  8
SCREW
100
AcDbLine
 10
21.81260714856896
 20
3.522220231046251
 30
0.0
 11
21.96578378692021
 21
3.587408093841244
 31
0.0
  0
LINE
  5
1279
330
121B
100
AcDbEntity
  8
SCREW
100
AcDbLine
 10
21.80186283658207
 20
3.544187857815204
 30
0.0
 11
21.95622097128703
 21
3.609878533722078
 31
0.0
  0
ARC
  5
127A
330
121B
100
AcDbEntity
  8
SCREW
100
AcDbCircle
 10
21.80723499257551
 20
3.533204044430728
 30
0.0
 40
0.0122271916842302
100
AcDbArc
 50
110.0434587331204
 51
296.0631427173527
  0
ARC
  5
127B
330
121B
100
AcDbEntity
  8
SCREW
100
AcDbCircle
 10
21.96159312728031
 20
3.598894720337525
 30
0.0
 40
0.0122271916842302
100
AcDbArc
 50
290.0434587308119
 51
116.063142715918
  0
LINE
  5
127C
330
121B
100
AcDbEntity
  8
SCREW
100
AcDbLine
 10
21.82045207146392
 20
3.52555881950739
 30
0.0
 11
21.82045207146392
 21
3.481259537832033
 31
0.0
  0
LINE
  5
127D
330
121B
100
AcDbEntity
  8
SCREW
100
AcDbLine
 10
21.96083381776742
 20
3.540258913636626
 30
0.0
 11
21.96083381776742
 21
3.585301519931256
 31
0.0
  0
LINE
  5
127E
330
121B
100
AcDbEntity
  8
SCREW
100
AcDbLine
 10
21.81260714856897
 20
3.451380832023969
 30
0.0
 11
21.96578378692022
 21
3.516568694818961
 31
0.0
  0
LINE
  5
127F
330
121B
100
AcDbEntity
  8
SCREW
100
AcDbLine
 10
21.80186283658207
 20
3.473348458792922
 30
0.0
 11
21.95622097128703
 21
3.539039134699796
 31
0.0
  0
ARC
  5
1280
330
121B
100
AcDbEntity
  8
SCREW
100
AcDbCircle
 10
21.80723499257552
 20
3.462364645408446
 30
0.0
 40
0.0122271916842302
100
AcDbArc
 50
110.0434587331204
 51
296.0631427173527
  0
ARC
  5
1281
330
121B
100
AcDbEntity
  8
SCREW
100
AcDbCircle
 10
21.96159312728032
 20
3.528055321315243
 30
0.0
 40
0.0122271916842302
100
AcDbArc
 50
290.0434587308119
 51
116.063142715918
  0
LINE
  5
1282
330
121B
100
AcDbEntity
  8
SCREW
100
AcDbLine
 10
21.82045207146393
 20
3.454719420485107
 30
0.0
 11
21.82045207146392
 21
3.410420138809751
 31
0.0
  0
LINE
  5
1283
330
121B
100
AcDbEntity
  8
SCREW
100
AcDbLine
 10
21.96083381776742
 20
3.469419514614344
 30
0.0
 11
21.96083381776743
 21
3.514462120908974
 31
0.0
  0
LINE
  5
1284
330
121B
100
AcDbEntity
  8
SCREW
100
AcDbLine
 10
21.81260714856896
 20
3.876417226157669
 30
0.0
 11
21.96578378692021
 21
3.941605088952662
 31
0.0
  0
LINE
  5
1285
330
121B
100
AcDbEntity
  8
SCREW
100
AcDbLine
 10
21.80186283658207
 20
3.898384852926622
 30
0.0
 11
21.95622097128703
 21
3.964075528833496
 31
0.0
  0
LINE
  5
1286
330
121B
100
AcDbEntity
  8
SCREW
100
AcDbLine
 10
21.82045207146392
 20
3.950595213641089
 30
0.0
 11
21.82045207146392
 21
3.906295931965733
 31
0.0
  0
LINE
  5
1287
330
121B
100
AcDbEntity
  8
SCREW
100
AcDbLine
 10
21.96083381776741
 20
3.965295307770326
 30
0.0
 11
21.96083381776742
 21
4.010337914064955
 31
0.0
  0
ARC
  5
1288
330
121B
100
AcDbEntity
  8
SCREW
100
AcDbCircle
 10
21.80723499257551
 20
3.887401039542146
 30
0.0
 40
0.0122271916842302
100
AcDbArc
 50
110.0434587331205
 51
296.0631427173527
  0
ARC
  5
1289
330
121B
100
AcDbEntity
  8
SCREW
100
AcDbCircle
 10
21.96159312728031
 20
3.953091715448942
 30
0.0
 40
0.0122271916842302
100
AcDbArc
 50
290.0434587308119
 51
116.063142715918
  0
LINE
  5
128A
330
121B
100
AcDbEntity
  8
SCREW
100
AcDbLine
 10
21.81260714856896
 20
3.947256625179958
 30
0.0
 11
21.96578378692021
 21
4.012444487974951
 31
0.0
  0
LINE
  5
128B
330
121B
100
AcDbEntity
  8
SCREW
100
AcDbLine
 10
21.80186283658207
 20
3.969224251948912
 30
0.0
 11
21.95622097128703
 21
4.034914927855785
 31
0.0
  0
LINE
  5
128C
330
121B
100
AcDbEntity
  8
SCREW
100
AcDbLine
 10
21.82045207146392
 20
4.021434612663378
 30
0.0
 11
21.82045207146392
 21
3.977135330988022
 31
0.0
  0
LINE
  5
128D
330
121B
100
AcDbEntity
  8
SCREW
100
AcDbLine
 10
21.96083381776741
 20
4.036134706792615
 30
0.0
 11
21.96083381776742
 21
4.081177313087246
 31
0.0
  0
ARC
  5
128E
330
121B
100
AcDbEntity
  8
SCREW
100
AcDbCircle
 10
21.80723499257551
 20
3.958240438564435
 30
0.0
 40
0.0122271916842302
100
AcDbArc
 50
110.0434587331205
 51
296.0631427173527
  0
ARC
  5
128F
330
121B
100
AcDbEntity
  8
SCREW
100
AcDbCircle
 10
21.96159312728031
 20
4.023931114471232
 30
0.0
 40
0.0122271916842302
100
AcDbArc
 50
290.0434587308119
 51
116.063142715918
  0
LINE
  5
1290
330
121B
100
AcDbEntity
  8
SCREW
100
AcDbLine
 10
21.81260714856896
 20
4.018096024202248
 30
0.0
 11
21.96578378692021
 21
4.08328388699724
 31
0.0
  0
LINE
  5
1291
330
121B
100
AcDbEntity
  8
SCREW
100
AcDbLine
 10
21.80186283658207
 20
4.040063650971201
 30
0.0
 11
21.95622097128703
 21
4.105754326878074
 31
0.0
  0
LINE
  5
1292
330
121B
100
AcDbEntity
  8
SCREW
100
AcDbLine
 10
21.82045207146392
 20
4.092274011685668
 30
0.0
 11
21.82045207146392
 21
4.047974730010311
 31
0.0
  0
LINE
  5
1293
330
121B
100
AcDbEntity
  8
SCREW
100
AcDbLine
 10
21.96083381776741
 20
4.106974105814905
 30
0.0
 11
21.96083381776742
 21
4.152016712109534
 31
0.0
  0
ARC
  5
1294
330
121B
100
AcDbEntity
  8
SCREW
100
AcDbCircle
 10
21.80723499257551
 20
4.029079837586724
 30
0.0
 40
0.0122271916842302
100
AcDbArc
 50
110.0434587331205
 51
296.0631427173527
  0
ARC
  5
1295
330
121B
100
AcDbEntity
  8
SCREW
100
AcDbCircle
 10
21.96159312728031
 20
4.094770513493521
 30
0.0
 40
0.0122271916842302
100
AcDbArc
 50
290.0434587308119
 51
116.063142715918
  0
LINE
  5
1296
330
121B
100
AcDbEntity
  8
SCREW
100
AcDbLine
 10
21.81260714856896
 20
4.088935423224537
 30
0.0
 11
21.96578378692021
 21
4.15412328601953
 31
0.0
  0
LINE
  5
1297
330
121B
100
AcDbEntity
  8
SCREW
100
AcDbLine
 10
21.80186283658207
 20
4.11090304999349
 30
0.0
 11
21.95622097128703
 21
4.176593725900364
 31
0.0
  0
LINE
  5
1298
330
121B
100
AcDbEntity
  8
SCREW
100
AcDbLine
 10
21.82045207146392
 20
4.163113410707957
 30
0.0
 11
21.82045207146392
 21
4.118814129032601
 31
0.0
  0
LINE
  5
1299
330
121B
100
AcDbEntity
  8
SCREW
100
AcDbLine
 10
21.96083381776741
 20
4.177813504837193
 30
0.0
 11
21.96083381776742
 21
4.222856111131824
 31
0.0
  0
ARC
  5
129A
330
121B
100
AcDbEntity
  8
SCREW
100
AcDbCircle
 10
21.80723499257551
 20
4.099919236609014
 30
0.0
 40
0.0122271916842302
100
AcDbArc
 50
110.0434587331205
 51
296.0631427173527
  0
ARC
  5
129B
330
121B
100
AcDbEntity
  8
SCREW
100
AcDbCircle
 10
21.96159312728031
 20
4.165609912515811
 30
0.0
 40
0.0122271916842302
100
AcDbArc
 50
290.0434587308119
 51
116.063142715918
  0
LINE
  5
129C
330
121B
100
AcDbEntity
  8
SCREW
100
AcDbLine
 10
21.81260714856896
 20
4.159774822246826
 30
0.0
 11
21.96578378692021
 21
4.224962685041819
 31
0.0
  0
LINE
  5
129D
330
121B
100
AcDbEntity
  8
SCREW
100
AcDbLine
 10
21.80186283658207
 20
4.181742449015779
 30
0.0
 11
21.95622097128703
 21
4.247433124922653
 31
0.0
  0
LINE
  5
129E
330
121B
100
AcDbEntity
  8
SCREW
100
AcDbLine
 10
21.82045207146392
 20
4.233952809730246
 30
0.0
 11
21.82045207146392
 21
4.18965352805489
 31
0.0
  0
LINE
  5
129F
330
121B
100
AcDbEntity
  8
SCREW
100
AcDbLine
 10
21.96083381776741
 20
4.248652903859484
 30
0.0
 11
21.96083381776742
 21
4.293695510154113
 31
0.0
  0
ARC
  5
12A0
330
121B
100
AcDbEntity
  8
SCREW
100
AcDbCircle
 10
21.80723499257551
 20
4.170758635631303
 30
0.0
 40
0.0122271916842302
100
AcDbArc
 50
110.0434587331205
 51
296.0631427173527
  0
ARC
  5
12A1
330
121B
100
AcDbEntity
  8
SCREW
100
AcDbCircle
 10
21.96159312728031
 20
4.236449311538099
 30
0.0
 40
0.0122271916842302
100
AcDbArc
 50
290.0434587308119
 51
116.063142715918
  0
LINE
  5
12A2
330
121B
100
AcDbEntity
  8
SCREW
100
AcDbLine
 10
21.81260714856896
 20
4.230614221269116
 30
0.0
 11
21.96578378692021
 21
4.295802084064108
 31
0.0
  0
LINE
  5
12A3
330
121B
100
AcDbEntity
  8
SCREW
100
AcDbLine
 10
21.80186283658207
 20
4.252581848038069
 30
0.0
 11
21.95622097128703
 21
4.318272523944942
 31
0.0
  0
LINE
  5
12A4
330
121B
100
AcDbEntity
  8
SCREW
100
AcDbLine
 10
21.82045207146392
 20
4.304792208752536
 30
0.0
 11
21.82045207146392
 21
4.260492927077179
 31
0.0
  0
LINE
  5
12A5
330
121B
100
AcDbEntity
  8
SCREW
100
AcDbLine
 10
21.96083381776741
 20
4.319492302881772
 30
0.0
 11
21.96083381776742
 21
4.364534909176403
 31
0.0
  0
ARC
  5
12A6
330
121B
100
AcDbEntity
  8
SCREW
100
AcDbCircle
 10
21.80723499257551
 20
4.241598034653592
 30
0.0
 40
0.0122271916842302
100
AcDbArc
 50
110.0434587331205
 51
296.0631427173527
  0
ARC
  5
12A7
330
121B
100
AcDbEntity
  8
SCREW
100
AcDbCircle
 10
21.96159312728031
 20
4.307288710560389
 30
0.0
 40
0.0122271916842302
100
AcDbArc
 50
290.0434587308119
 51
116.063142715918
  0
LINE
  5
12A8
330
121B
100
AcDbEntity
  8
SCREW
100
AcDbLine
 10
21.81260714856896
 20
4.301453620291405
 30
0.0
 11
21.96578378692021
 21
4.366641483086397
 31
0.0
  0
LINE
  5
12A9
330
121B
100
AcDbEntity
  8
SCREW
100
AcDbLine
 10
21.80186283658207
 20
4.323421247060358
 30
0.0
 11
21.95622097128703
 21
4.389111922967232
 31
0.0
  0
LINE
  5
12AA
330
121B
100
AcDbEntity
  8
SCREW
100
AcDbLine
 10
21.82045207146392
 20
4.375631607774825
 30
0.0
 11
21.82045207146392
 21
4.331332326099469
 31
0.0
  0
LINE
  5
12AB
330
121B
100
AcDbEntity
  8
SCREW
100
AcDbLine
 10
21.96083381776741
 20
4.390331701904062
 30
0.0
 11
21.96083381776742
 21
4.435374308198691
 31
0.0
  0
ARC
  5
12AC
330
121B
100
AcDbEntity
  8
SCREW
100
AcDbCircle
 10
21.80723499257551
 20
4.312437433675881
 30
0.0
 40
0.0122271916842302
100
AcDbArc
 50
110.0434587331205
 51
296.0631427173527
  0
ARC
  5
12AD
330
121B
100
AcDbEntity
  8
SCREW
100
AcDbCircle
 10
21.96159312728031
 20
4.378128109582678
 30
0.0
 40
0.0122271916842302
100
AcDbArc
 50
290.0434587308119
 51
116.063142715918
  0
LINE
  5
12AE
330
121B
100
AcDbEntity
  8
SCREW
100
AcDbLine
 10
21.81260714856896
 20
4.372293019313693
 30
0.0
 11
21.96578378692021
 21
4.437480882108686
 31
0.0
  0
LINE
  5
12AF
330
121B
100
AcDbEntity
  8
SCREW
100
AcDbLine
 10
21.80186283658207
 20
4.394260646082648
 30
0.0
 11
21.95622097128703
 21
4.45995132198952
 31
0.0
  0
LINE
  5
12B0
330
121B
100
AcDbEntity
  8
SCREW
100
AcDbLine
 10
21.82045207146392
 20
4.446471006797113
 30
0.0
 11
21.82045207146392
 21
4.402171725121758
 31
0.0
  0
LINE
  5
12B1
330
121B
100
AcDbEntity
  8
SCREW
100
AcDbLine
 10
21.96083381776741
 20
4.461171100926351
 30
0.0
 11
21.96083381776742
 21
4.506213707220982
 31
0.0
  0
ARC
  5
12B2
330
121B
100
AcDbEntity
  8
SCREW
100
AcDbCircle
 10
21.80723499257551
 20
4.383276832698171
 30
0.0
 40
0.0122271916842302
100
AcDbArc
 50
110.0434587331205
 51
296.0631427173527
  0
ARC
  5
12B3
330
121B
100
AcDbEntity
  8
SCREW
100
AcDbCircle
 10
21.96159312728031
 20
4.448967508604968
 30
0.0
 40
0.0122271916842302
100
AcDbArc
 50
290.0434587308119
 51
116.063142715918
  0
LINE
  5
12B4
330
121B
100
AcDbEntity
  8
SCREW
100
AcDbLine
 10
21.81260714856896
 20
4.443132418335984
 30
0.0
 11
21.96578378692021
 21
4.508320281130977
 31
0.0
  0
LINE
  5
12B5
330
121B
100
AcDbEntity
  8
SCREW
100
AcDbLine
 10
21.80186283658207
 20
4.465100045104938
 30
0.0
 11
21.95622097128703
 21
4.530790721011811
 31
0.0
  0
LINE
  5
12B6
330
121B
100
AcDbEntity
  8
SCREW
100
AcDbLine
 10
21.82045207146392
 20
4.517310405819404
 30
0.0
 11
21.82045207146392
 21
4.473011124144049
 31
0.0
  0
LINE
  5
12B7
330
121B
100
AcDbEntity
  8
SCREW
100
AcDbLine
 10
21.96083381776741
 20
4.532010499948642
 30
0.0
 11
21.96083381776742
 21
4.577053106243271
 31
0.0
  0
ARC
  5
12B8
330
121B
100
AcDbEntity
  8
SCREW
100
AcDbCircle
 10
21.80723499257551
 20
4.45411623172046
 30
0.0
 40
0.0122271916842302
100
AcDbArc
 50
110.0434587331205
 51
296.0631427173527
  0
ARC
  5
12B9
330
121B
100
AcDbEntity
  8
SCREW
100
AcDbCircle
 10
21.96159312728025
 20
4.519806907627225
 30
0.0
 40
0.0122271916842302
100
AcDbArc
 50
290.0434587308119
 51
116.063142715918
  0
ENDBLK
  5
12BA
330
121B
100
AcDbEntity
  8
0
100
AcDbBlockEnd
  0
BLOCK
  5
1FB2
330
1FB1
100
AcDbEntity
  8
0
100
AcDbBlockBegin
  2
*D5
 70
     1
 10
0.0
 20
0.0
 30
0.0
  3
*D5
  1

  0
LINE
  5
2059
330
1FB1
100
AcDbEntity
  8
DIMENSIONS
  6
ByBlock
440
 16777216
100
AcDbLine
 10
21.661718093282
 20
17.8041964841884
 30
0.0
 11
21.661718093282
 21
17.56183727275917
 31
0.0
  0
LINE
  5
205A
330
1FB1
100
AcDbEntity
  8
DIMENSIONS
  6
ByBlock
440
 16777216
100
AcDbLine
 10
22.10229954922801
 20
17.8041964841884
 30
0.0
 11
22.10229954922801
 21
17.56183727275917
 31
0.0
  0
LINE
  5
205B
330
1FB1
100
AcDbEntity
  8
DIMENSIONS
  6
ByBlock
440
 16777216
100
AcDbLine
 10
21.541718093282
 20
17.66183727275917
 30
0.0
 11
21.421718093282
 21
17.66183727275917
 31
0.0
  0
LINE
  5
205C
330
1FB1
100
AcDbEntity
  8
DIMENSIONS
  6
ByBlock
440
 16777216
100
AcDbLine
 10
22.22229954922801
 20
17.66183727275917
 30
0.0
 11
22.34229954922801
 21
17.66183727275917
 31
0.0
  0
SOLID
  5
205D
330
1FB1
100
AcDbEntity
  8
DIMENSIONS
440
 16777216
100
AcDbTrace
 10
21.541718093282
 20
17.68183727275917
 30
0.0
 11
21.541718093282
 21
17.64183727275917
 31
0.0
 12
21.661718093282
 22
17.66183727275917
 32
0.0
 13
21.661718093282
 23
17.66183727275917
 33
0.0
  0
SOLID
  5
205E
330
1FB1
100
AcDbEntity
  8
DIMENSIONS
440
 16777216
100
AcDbTrace
 10
22.22229954922801
 20
17.68183727275917
 30
0.0
 11
22.22229954922801
 21
17.64183727275917
 31
0.0
 12
22.10229954922801
 22
17.66183727275917
 32
0.0
 13
22.10229954922801
 23
17.66183727275917
 33
0.0
  0
MTEXT
  5
205F
330
1FB1
100
AcDbEntity
  8
DIMENSIONS
440
 16777216
100
AcDbMText
 10
21.882008821255
 20
17.66183727275917
 30
0.0
 40
0.12
 41
0.0
 46
0.0
 71
     5
 72
     1
  1
\A1;3/8"
 73
     1
 44
1.0
  0
POINT
  5
2060
330
1FB1
100
AcDbEntity
  8
Defpoints
 62
     0
440
 16777216
100
AcDbPoint
 10
21.661718093282
 20
17.8541964841884
 30
0.0
  0
POINT
  5
2061
330
1FB1
100
AcDbEntity
  8
Defpoints
 62
     0
440
 16777216
100
AcDbPoint
 10
22.10229954922801
 20
17.8541964841884
 30
0.0
  0
POINT
  5
2062
330
1FB1
100
AcDbEntity
  8
Defpoints
 62
     0
440
 16777216
100
AcDbPoint
 10
22.10229954922801
 20
17.66183727275917
 30
0.0
  0
ENDBLK
  5
1FB3
330
1FB1
100
AcDbEntity
  8
0
100
AcDbBlockEnd
  0
ENDSEC
  0
SECTION
  2
ENTITIES
  0
HATCH
  5
15B7
330
1F
100
AcDbEntity
  8
ADHESIVE
100
AcDbHatch
 10
0.0
 20
0.0
 30
0.0
210
0.0
220
0.0
230
1.0
  2
HONEY
 70
     0
 71
     0
 91
        1
 92
        7
 72
     0
 73
     1
 93
        4
 10
21.66164862983251
 20
24.11215059604827
 10
21.61479687593543
 20
24.11215059604827
 10
21.61479687593543
 20
22.11215059604827
 10
21.66164862983251
 20
22.11215059604827
 97
        0
 75
     0
 76
     1
 52
0.0
 41
0.2
 77
     0
 78
     3
 53
0.0
 43
24.6636583362228
 44
14.81723234946192
 45
0.0375
 46
0.021650635094611
 79
     2
 49
0.025
 49
-0.05
 53
120.0
 43
24.6636583362228
 44
14.81723234946192
 45
-0.0375
 46
0.021650635094611
 79
     2
 49
0.025
 49
-0.05
 53
60.0
 43
24.6636583362228
 44
14.81723234946192
 45
0.0
 46
0.043301270189222
 79
     2
 49
-0.05
 49
0.025
 47
0.0055010307050841
 98
        1
 10
21.64598144932158
 20
23.97065278216004
1001
GradientColor1ACI
1070
     5
1001
GradientColor2ACI
1070
     2
1001
ACAD
1010
0.0
1020
0.0
1030
0.0
  0
HATCH
  5
15B8
330
1F
100
AcDbEntity
  8
ADHESIVE
100
AcDbHatch
 10
0.0
 20
0.0
 30
0.0
210
0.0
220
0.0
230
1.0
  2
HONEY
 70
     0
 71
     0
 91
        1
 92
        7
 72
     0
 73
     1
 93
        4
 10
21.66164862983251
 20
24.99643527863817
 10
21.61479687593543
 20
24.99643425086297
 10
21.61479687593543
 20
24.73715059604827
 10
21.66164862983251
 20
24.73715059604827
 97
        0
 75
     0
 76
     1
 52
0.0
 41
0.2
 77
     0
 78
     3
 53
0.0
 43
24.6636583362228
 44
12.19223234946192
 45
0.0375
 46
0.021650635094611
 79
     2
 49
0.025
 49
-0.05
 53
120.0
 43
24.6636583362228
 44
12.19223234946192
 45
-0.0375
 46
0.021650635094611
 79
     2
 49
0.025
 49
-0.05
 53
60.0
 43
24.6636583362228
 44
12.19223234946192
 45
0.0
 46
0.043301270189222
 79
     2
 49
-0.05
 49
0.025
 47
0.0016854783248752
 98
        1
 10
21.63984310751066
 20
24.8992999051784
1001
GradientColor1ACI
1070
     5
1001
GradientColor2ACI
1070
     2
1001
ACAD
1010
0.0
1020
0.0
1030
0.0
  0
HATCH
  5
15B9
330
1F
100
AcDbEntity
  8
ADHESIVE
100
AcDbHatch
 10
0.0
 20
0.0
 30
0.0
210
0.0
220
0.0
230
1.0
  2
HONEY
 70
     0
 71
     0
 91
        1
 92
        7
 72
     0
 73
     1
 93
        4
 10
21.66164862983251
 20
21.48715059604827
 10
21.61479687593543
 20
21.48715059604827
 10
21.61479687593543
 20
19.48715059604827
 10
21.66164862983251
 20
19.48715059604827
 97
        0
 75
     0
 76
     1
 52
0.0
 41
0.2
 77
     0
 78
     3
 53
0.0
 43
24.6636583362228
 44
12.19223234946192
 45
0.0375
 46
0.021650635094611
 79
     2
 49
0.025
 49
-0.05
 53
120.0
 43
24.6636583362228
 44
12.19223234946192
 45
-0.0375
 46
0.021650635094611
 79
     2
 49
0.025
 49
-0.05
 53
60.0
 43
24.6636583362228
 44
12.19223234946192
 45
0.0
 46
0.043301270189222
 79
     2
 49
-0.05
 49
0.025
 47
0.0055010307050841
 98
        1
 10
21.64598144932158
 20
21.34565278216005
1001
GradientColor1ACI
1070
     5
1001
GradientColor2ACI
1070
     2
1001
ACAD
1010
0.0
1020
0.0
1030
0.0
  0
HATCH
  5
15BA
330
1F
100
AcDbEntity
  8
ADHESIVE
100
AcDbHatch
 10
0.0
 20
0.0
 30
0.0
210
0.0
220
0.0
230
1.0
  2
HONEY
 70
     0
 71
     0
 91
        1
 92
        1
 93
        4
 72
     1
 10
21.61479687593544
 20
17.8541964841884
 11
21.661718093282
 21
17.8541964841884
 72
     1
 10
21.661718093282
 20
17.8541964841884
 11
21.66166639792011
 21
18.86215059604826
 72
     1
 10
21.66166639792011
 20
18.86215059604826
 11
21.61479687593543
 21
18.86215059604826
 72
     1
 10
21.61479687593543
 20
18.86215059604827
 11
21.61479687593543
 21
17.8541964841884
 97
        0
 75
     0
 76
     1
 52
0.0
 41
0.2
 77
     0
 78
     3
 53
0.0
 43
24.6636583362228
 44
12.19223234946192
 45
0.0375
 46
0.021650635094611
 79
     2
 49
0.025
 49
-0.05
 53
120.0
 43
24.6636583362228
 44
12.19223234946192
 45
-0.0375
 46
0.021650635094611
 79
     2
 49
0.025
 49
-0.05
 53
60.0
 43
24.6636583362228
 44
12.19223234946192
 45
0.0
 46
0.043301270189222
 79
     2
 49
-0.05
 49
0.025
 98
        1
 10
21.63540704255623
 20
18.47121370332085
1001
GradientColor1ACI
1070
     5
1001
GradientColor2ACI
1070
     2
1001
ACAD
1010
0.0
1020
0.0
1030
0.0
  0
LINE
  5
15BB
330
1F
100
AcDbEntity
  8
ADHESIVE
  6
ACANSTGB
 48
0.1
100
AcDbLine
 10
21.61479687593543
 20
21.48715059604827
 30
0.0
 11
21.66164862983251
 21
21.48715059604827
 31
0.0
  0
LINE
  5
15BC
330
1F
100
AcDbEntity
  8
ADHESIVE
100
AcDbLine
 10
21.61479687593544
 20
19.48715059604827
 30
0.0
 11
21.66164862983251
 21
19.48715059604827
 31
0.0
  0
LINE
  5
15BD
330
1F
100
AcDbEntity
  8
ADHESIVE
100
AcDbLine
 10
21.61479687593544
 20
24.73715059604827
 30
0.0
 11
21.66164862983252
 21
24.73715059604827
 31
0.0
  0
LINE
  5
15BE
330
1F
100
AcDbEntity
  8
ADHESIVE
100
AcDbLine
 10
21.61479687593543
 20
18.86215059604827
 30
0.0
 11
21.66164862983251
 21
18.86215059604826
 31
0.0
  0
LINE
  5
15BF
330
1F
100
AcDbEntity
  8
ADHESIVE
100
AcDbLine
 10
21.61479687593543
 20
24.11215059604827
 30
0.0
 11
21.66164862983251
 21
24.11215059604827
 31
0.0
  0
LINE
  5
15C0
330
1F
100
AcDbEntity
  8
ADHESIVE
  6
ACANSTGB
 48
0.1
100
AcDbLine
 10
21.61479687593544
 20
22.11215059604827
 30
0.0
 11
21.66164862983251
 21
22.11215059604827
 31
0.0
  0
LWPOLYLINE
  5
15C1
330
1F
100
AcDbEntity
  8
WRB
100
AcDbPolyline
 90
        2
 70
     0
 43
0.0625
 10
23.17715267183113
 20
24.99645236876389
 10
23.17715267183113
 20
17.85420037225066
  0
HATCH
  5
15C2
330
1F
100
AcDbEntity
  8
HATCH
 62
     9
100
AcDbHatch
 10
0.0
 20
0.0
 30
0.0
210
0.0
220
0.0
230
1.0
  2
ANSI31
 70
     0
 71
     0
 91
        1
 92
        1
 93
        8
 72
     1
 10
21.61479687593543
 20
24.99643654613123
 11
21.5560503285746
 21
24.99643296215466
 72
     1
 10
21.5560503285746
 20
24.99643296215466
 11
21.5248003285746
 21
24.99651770577852
 72
     1
 10
21.5248003285746
 20
24.99651770577852
 11
21.4623003285746
 21
24.99651770577852
 72
     1
 10
21.4623003285746
 20
24.99651770577852
 11
21.4310503285746
 21
24.99643296215466
 72
     1
 10
21.4310503285746
 20
24.99643296215466
 11
21.11479687593543
 21
24.99643296215466
 72
     1
 10
21.11479687593543
 20
24.99643296215466
 11
21.11479687593543
 21
24.61215059604827
 72
     1
 10
21.11479687593543
 20
24.61215059604827
 11
21.61479687593543
 21
24.61215059604827
 72
     1
 10
21.61479687593543
 20
24.61215059604827
 11
21.61479687593543
 21
24.99643654613123
 97
        0
 75
     0
 76
     1
 52
0.0
 41
1.5
 77
     0
 78
     1
 53
45.0
 43
23.28522538837757
 44
11.96559534288461
 45
-0.1325825214724776
 46
0.1325825214724777
 79
     0
 98
        1
 10
21.42697192466672
 20
24.75514993782222
1001
GradientColor1ACI
1070
     5
1001
GradientColor2ACI
1070
     2
1001
ACAD
1010
0.0
1020
0.0
1030
0.0
  0
HATCH
  5
15C3
330
1F
100
AcDbEntity
  8
HATCH
 62
     9
100
AcDbHatch
 10
0.0
 20
0.0
 30
0.0
210
0.0
220
0.0
230
1.0
  2
AR-SAND
 70
     0
 71
     0
 91
        1
 92
        1
 93
        6
 72
     1
 10
21.61479687593543
 20
21.84881511971834
 11
21.3262498820726
 21
21.94256972131317
 72
     1
 10
21.32624988207261
 20
21.94256972131316
 11
21.34073508634933
 21
21.98715059604827
 72
     1
 10
21.34073508634933
 20
21.98715059604827
 11
21.11479687593543
 21
21.98715059604827
 72
     2
 10
20.97417187593544
 20
21.79965059604827
 40
0.2343749999999981
 50
306.8698976458434
 51
413.1301023541566
 73
     0
 72
     1
 10
21.11479687593543
 20
21.61215059604827
 11
21.61479687593543
 21
21.61215059604827
 72
     1
 10
21.61479687593543
 20
21.61215059604827
 11
21.61479687593543
 21
21.84881511971834
 97
        0
 75
     0
 76
     1
 52
0.0
 41
0.05
 77
     0
 78
     4
 53
37.5
 43
16.80209965710469
 44
14.87149472248619
 45
-0.0031496679054804
 46
0.0963411884506579
 79
     6
 49
0.0
 49
-0.076
 49
0.0
 49
-0.085
 49
0.0
 49
-0.08125
 53
7.499999999999999
 43
16.80209965710469
 44
14.87149472248619
 45
0.0884888352633864
 46
0.141107303261487
 79
     6
 49
0.0
 49
-0.041
 49
0.0
 49
-0.0685
 49
0.0
 49
-0.02625
 53
327.5
 43
16.74059965710469
 44
14.87149472248619
 45
0.1557070930875748
 46
0.0002829526768482
 79
     6
 49
0.0
 49
-0.025
 49
0.0
 49
-0.09
 49
0.0
 49
-0.1175
 53
317.5
 43
16.74059965710469
 44
14.87149472248619
 45
0.1503063302286147
 46
0.0438837782467125
 79
     6
 49
0.0
 49
-0.0125
 49
0.0
 49
-0.059
 49
0.0
 49
-0.0675
 98
        1
 10
21.45761590009403
 20
21.90031007624132
1001
ACAD
1010
0.0
1020
0.0
1030
0.0
  0
HATCH
  5
15C4
330
1F
100
AcDbEntity
  8
A-PA
 48
0.1
100
AcDbHatch
 10
0.0
 20
0.0
 30
0.0
210
0.0
220
0.0
230
1.0
  2
AR-SAND
 70
     0
 71
     0
 91
        1
 92
        7
 72
     0
 73
     1
 93
        3
 10
21.61479687593543
 20
21.98715059604827
 10
21.34073508634934
 20
21.98715059604827
 10
21.61479687593544
 20
21.8981025226269
 97
        0
 75
     0
 76
     1
 52
0.0
 41
0.05
 77
     0
 78
     4
 53
37.5
 43
16.80209965710469
 44
14.72096553580457
 45
-0.0031496679054804
 46
0.0963411884506579
 79
     6
 49
0.0
 49
-0.076
 49
0.0
 49
-0.085
 49
0.0
 49
-0.08125
 53
7.499999999999999
 43
16.80209965710469
 44
14.72096553580457
 45
0.0884888352633864
 46
0.141107303261487
 79
     6
 49
0.0
 49
-0.041
 49
0.0
 49
-0.0685
 49
0.0
 49
-0.02625
 53
327.5
 43
16.74059965710469
 44
14.72096553580457
 45
0.1557070930875748
 46
0.0002829526768482
 79
     6
 49
0.0
 49
-0.025
 49
0.0
 49
-0.09
 49
0.0
 49
-0.1175
 53
317.5
 43
16.74059965710469
 44
14.72096553580457
 45
0.1503063302286147
 46
0.0438837782467125
 79
     6
 49
0.0
 49
-0.0125
 49
0.0
 49
-0.059
 49
0.0
 49
-0.0675
 47
0.0016312325050713
 98
        1
 10
21.55936331573741
 20
21.92769367836055
1001
ACAD
1010
0.0
1020
0.0
1030
0.0
  0
LINE
  5
15C5
330
1F
100
AcDbEntity
  8
BRICK
100
AcDbLine
 10
21.61479687593543
 20
24.99644011146425
 30
0.0
 11
21.61479687593543
 21
24.61215059604827
 31
0.0
  0
HATCH
  5
15C6
330
1F
100
AcDbEntity
  8
HATCH
 62
     9
100
AcDbHatch
 10
0.0
 20
0.0
 30
0.0
210
0.0
220
0.0
230
1.0
  2
ANSI31
 70
     0
 71
     0
 91
        1
 92
        7
 72
     0
 73
     1
 93
        4
 10
21.61479687593543
 20
24.22205154443369
 10
21.11479687593543
 20
24.22205154443369
 10
21.11479687593543
 20
21.98715059604827
 10
21.61479687593543
 20
21.98715059604827
 97
        0
 75
     0
 76
     1
 52
0.0
 41
1.5
 77
     0
 78
     1
 53
45.0
 43
23.28522538837757
 44
11.96559534288461
 45
-0.1325825214724776
 46
0.1325825214724777
 79
     0
 47
0.0058136491352681
 98
        1
 10
21.46188529962932
 20
23.06337803194192
1001
GradientColor1ACI
1070
     5
1001
GradientColor2ACI
1070
     2
1001
ACAD
1010
0.0
1020
0.0
1030
0.0
  0
LINE
  5
15C7
330
1F
100
AcDbEntity
  8
BRICK
100
AcDbLine
 10
21.61479687593543
 20
24.22205154443369
 30
0.0
 11
21.61479687593543
 21
21.98715059604827
 31
0.0
  0
LINE
  5
15C8
330
1F
100
AcDbEntity
  8
BRICK
100
AcDbLine
 10
21.61479687593543
 20
21.98715059604827
 30
0.0
 11
21.11479687593543
 21
21.98715059604827
 31
0.0
  0
LINE
  5
15C9
330
1F
100
AcDbEntity
  8
BRICK
100
AcDbLine
 10
21.11479687593543
 20
21.98715059604827
 30
0.0
 11
21.11479687593543
 21
24.22205154443369
 31
0.0
  0
HATCH
  5
15CA
330
1F
100
AcDbEntity
  8
HATCH
 62
     9
100
AcDbHatch
 10
0.0
 20
0.0
 30
0.0
210
0.0
220
0.0
230
1.0
  2
ANSI31
 70
     0
 71
     0
 91
        1
 92
        7
 72
     0
 73
     1
 93
        4
 10
21.61479687593543
 20
21.61215059604827
 10
21.11479687593543
 20
21.61215059604827
 10
21.11479687593543
 20
19.36215059604826
 10
21.61479687593543
 20
19.36215059604826
 97
        0
 75
     0
 76
     1
 52
0.0
 41
1.5
 77
     0
 78
     1
 53
45.0
 43
16.90738061090548
 44
14.57187616164121
 45
-0.1325825214724776
 46
0.1325825214724777
 79
     0
 47
0.0056835847956206
 98
        1
 10
21.29906945295583
 20
20.79546125108877
1001
ACAD
1010
0.0
1020
0.0
1030
0.0
  0
LINE
  5
15CB
330
1F
100
AcDbEntity
  8
BRICK
100
AcDbLine
 10
21.61479687593543
 20
19.36215059604826
 30
0.0
 11
21.61479687593543
 21
21.61215059604827
 31
0.0
  0
LINE
  5
15CC
330
1F
100
AcDbEntity
  8
BRICK
100
AcDbLine
 10
21.61479687593543
 20
21.61215059604827
 30
0.0
 11
21.11479687593543
 21
21.61215059604827
 31
0.0
  0
LINE
  5
15CD
330
1F
100
AcDbEntity
  8
BRICK
100
AcDbLine
 10
21.11479687593543
 20
21.61215059604827
 30
0.0
 11
21.11479687593543
 21
19.36215059604826
 31
0.0
  0
LINE
  5
15CE
330
1F
100
AcDbEntity
  8
BRICK
100
AcDbLine
 10
21.11479687593543
 20
19.36215059604826
 30
0.0
 11
21.61479687593543
 21
19.36215059604826
 31
0.0
  0
LINE
  5
15CF
330
1F
100
AcDbEntity
  8
A-DE-10
100
AcDbLine
 10
21.66164862983251
 20
24.45859206207412
 30
0.0
 11
21.66164862983251
 21
21.88287946498268
 31
0.0
  0
LINE
  5
15D0
330
1F
100
AcDbEntity
  8
A-DE-10
100
AcDbLine
 10
21.66164862983251
 20
21.88287946498268
 30
0.0
 11
21.34073508634933
 21
21.98715059604827
 31
0.0
  0
LINE
  5
15D1
330
1F
100
AcDbEntity
  8
A-DE-10
100
AcDbLine
 10
21.34073508634933
 20
21.98715059604827
 30
0.0
 11
21.3262498820726
 21
21.94256972131316
 31
0.0
  0
LINE
  5
15D2
330
1F
100
AcDbEntity
  8
A-DE-10
100
AcDbLine
 10
21.3262498820726
 20
21.94256972131316
 30
0.0
 11
21.66164862983251
 21
21.83359206207412
 31
0.0
  0
LINE
  5
15D3
330
1F
100
AcDbEntity
  8
A-DE-10
100
AcDbLine
 10
21.66164862983251
 20
21.83359206207412
 30
0.0
 11
21.66164862983251
 21
19.25787946498268
 31
0.0
  0
LINE
  5
15D4
330
1F
100
AcDbEntity
  8
A-DE-10
100
AcDbLine
 10
21.66164862983251
 20
19.25787946498268
 30
0.0
 11
21.34073508634933
 21
19.36215059604826
 31
0.0
  0
LINE
  5
15D5
330
1F
100
AcDbEntity
  8
A-DE-10
100
AcDbLine
 10
21.34073508634933
 20
19.36215059604826
 30
0.0
 11
21.3262498820726
 21
19.31756972131316
 31
0.0
  0
LINE
  5
15D6
330
1F
100
AcDbEntity
  8
A-DE-10
100
AcDbLine
 10
21.3262498820726
 20
19.31756972131316
 30
0.0
 11
21.66164862983251
 21
19.20859206207412
 31
0.0
  0
LINE
  5
15D7
102
{ACAD_REACTORS
330
1FC9
102
}
330
1F
100
AcDbEntity
  8
A-DE-10
100
AcDbLine
 10
21.66164862983251
 20
19.20859206207412
 30
0.0
 11
21.661718093282
 21
17.8541964841884
 31
0.0
  0
LWPOLYLINE
  5
15D9
330
1F
100
AcDbEntity
  8
DRAINAGE MAT
100
AcDbPolyline
 90
        2
 70
     0
 43
0.0
 10
21.708599549228
 20
17.8541964841884
 10
21.7084981172582
 20
24.99644226127014
  0
LWPOLYLINE
  5
15DA
102
{ACAD_REACTORS
330
1FC9
102
}
330
1F
100
AcDbEntity
  8
DRAINAGE MAT
100
AcDbPolyline
 90
        2
 70
     0
 43
0.0
 10
22.10229954922801
 20
17.8541964841884
 10
22.10219811742183
 20
24.99644300673665
  0
LINE
  5
15DB
330
1F
100
AcDbEntity
  8
A-DE-10
100
AcDbLine
 10
21.66164862983251
 20
24.9964429697699
 30
0.0
 11
21.66164862983251
 21
24.50787946498269
 31
0.0
  0
LEADER
  5
15DC
330
1F
100
AcDbEntity
  8
LEADERS
100
AcDbLeader
  3
Standard
 76
     2
 10
21.11479687593543
 20
18.15691040030251
 30
0.0
 10
20.19421441941081
 20
18.15691040030251
 30
0.0
1001
ACAD
1000
DSTYLE
1002
{
1070
   147
1040
0.09375
1070
    77
1070
     0
1070
    41
1040
0.1875
1070
    90
1070
     1
1002
}
  0
LEADER
  5
15DD
330
1F
100
AcDbEntity
  8
LEADERS
100
AcDbLeader
  3
Standard
 76
     2
 10
22.8747502585842
 20
22.86725641313642
 30
0.0
 10
20.16210137201279
 20
22.86725641313642
 30
0.0
1001
ACAD
1000
DSTYLE
1002
{
1070
   147
1040
0.09375
1070
    77
1070
     0
1070
    41
1040
0.1875
1070
    90
1070
     1
1002
}
  0
LEADER
  5
15DE
330
1F
100
AcDbEntity
  8
LEADERS
100
AcDbLeader
  3
Standard
 76
     2
 10
21.20854687593544
 20
21.79965059604827
 30
0.0
 10
19.52629580486284
 20
21.79965059604827
 30
0.0
1001
ACAD
1000
DSTYLE
1002
{
1070
   147
1040
0.09375
1070
    77
1070
     0
1070
    41
1040
0.1875
1070
    90
1070
     1
1002
}
  0
LEADER
  5
15DF
330
1F
100
AcDbEntity
  8
LEADERS
100
AcDbLeader
  3
Standard
 76
     3
 10
21.33349248421096
 20
21.96486015868071
 30
0.0
 10
20.00093496735499
 20
22.27495401909867
 30
0.0
 10
19.83809096262996
 20
22.27495401909867
 30
0.0
1001
ACAD
1000
DSTYLE
1002
{
1070
   147
1040
0.09375
1070
    77
1070
     0
1070
    41
1040
0.1875
1070
    90
1070
     1
1002
}
  0
LEADER
  5
15E0
330
1F
100
AcDbEntity
  8
LEADERS
100
AcDbLeader
  3
Standard
 76
     2
 10
23.17715267183113
 20
23.40007994243316
 30
0.0
 10
20.6905331900712
 20
23.40007994243316
 30
0.0
1001
ACAD
1000
DSTYLE
1002
{
1070
   147
1040
0.09375
1070
    77
1070
     0
1070
    41
1040
0.1875
1070
    90
1070
     1
1002
}
  0
LINE
  5
15E1
330
1F
100
AcDbEntity
  8
WALL CONSTRUCTION
100
AcDbLine
 10
23.2446401641604
 20
17.85420298755795
 30
0.0
 11
23.2446401641604
 21
24.99647772936342
 31
0.0
  0
LEADER
  5
15E2
330
1F
100
AcDbEntity
  8
LEADERS
100
AcDbLeader
  3
Standard
 76
     2
 10
23.53731273145642
 20
24.11224553154881
 30
0.0
 10
19.96319008861971
 20
24.11224553154881
 30
0.0
1001
ACAD
1000
DSTYLE
1002
{
1070
   147
1040
0.09375
1070
    77
1070
     0
1070
    41
1040
0.1875
1070
    90
1070
     1
1002
}
  0
HATCH
  5
15E3
330
1F
100
AcDbEntity
  8
INSULATION
100
AcDbHatch
 10
0.0
 20
0.0
 30
0.0
210
0.0
220
0.0
230
1.0
  2
INSUL
 70
     0
 71
     0
 91
        2
 92
        7
 72
     1
 73
     1
 93
       51
 10
22.12286940558835
 20
21.86492880376571
 42
0.0
 10
22.15667676460331
 20
21.8649288037657
 42
-0.8206584936652159
 10
22.17986417030907
 20
21.87106026927225
 42
0.0
 10
22.18247355733097
 20
21.86492880376571
 42
0.0
 10
22.22751616362559
 20
21.8649288037657
 42
-0.8206584936630946
 10
22.25070356933132
 20
21.87106026927231
 42
0.0
 10
22.25331295635325
 20
21.86492880376571
 42
0.0
 10
22.29835556264787
 20
21.8649288037657
 42
-0.8206584936652083
 10
22.32154296835363
 20
21.87106026927225
 42
0.0
 10
22.32415235537553
 20
21.86492880376571
 42
0.0
 10
22.36919496167015
 20
21.8649288037657
 42
-0.8206584936652083
 10
22.39238236737591
 20
21.87106026927225
 42
0.0
 10
22.39499175439782
 20
21.86492880376571
 42
0.0
 10
22.44003436069244
 20
21.8649288037657
 42
-0.8206584936630743
 10
22.46322176639817
 20
21.87106026927231
 42
0.0
 10
22.46583115342009
 20
21.86492880376571
 42
0.0
 10
22.51087375971472
 20
21.8649288037657
 42
-0.8206584936631188
 10
22.53406116542045
 20
21.8710602692723
 42
0.0
 10
22.53667055244238
 20
21.86492880376571
 42
0.0
 10
22.581713158737
 20
21.8649288037657
 42
-0.820658493665204
 10
22.60490056444276
 20
21.87106026927225
 42
0.0
 10
22.60750995146466
 20
21.86492880376571
 42
0.0
 10
22.65255255775928
 20
21.8649288037657
 42
-0.8206584936652083
 10
22.67573996346504
 20
21.87106026927225
 42
0.0
 10
22.67834935048695
 20
21.86492880376571
 42
0.0
 10
22.72339195678156
 20
21.8649288037657
 42
-0.8206584936630806
 10
22.7465793624873
 20
21.87106026927231
 42
0.0
 10
22.74918874950922
 20
21.86492880376571
 42
0.0
 10
22.79423135580385
 20
21.8649288037657
 42
-0.8206584936652159
 10
22.8174187615096
 20
21.87106026927225
 42
0.0
 10
22.82002814853151
 20
21.86492880376571
 42
0.0
 10
22.86507075482613
 20
21.8649288037657
 42
-0.8206584936652159
 10
22.88825816053189
 20
21.87106026927225
 42
0.0
 10
22.89086754755379
 20
21.86492880376571
 42
0.0
 10
22.93591015384841
 20
21.8649288037657
 42
-0.8206584936630946
 10
22.95909755955414
 20
21.87106026927231
 42
0.0
 10
22.96170694657607
 20
21.86492880376571
 42
0.0
 10
23.00674955287069
 20
21.8649288037657
 42
-0.820658493663085
 10
23.02993695857642
 20
21.87106026927231
 42
0.0
 10
23.03254634559835
 20
21.86492880376571
 42
0.0
 10
23.08588483972699
 20
21.8649288037657
 42
-0.8470976309960182
 10
23.10900117192394
 20
21.87181957878514
 42
0.0
 10
23.11161055894584
 20
21.86568811327861
 42
0.0
 10
23.12286939490574
 20
21.86568811327861
 42
0.0
 10
23.12282493188136
 20
24.99651948850645
 42
0.0
 10
23.07682198674887
 20
24.99651770577852
 42
0.0
 10
23.01431140060022
 20
24.99648862057413
 42
0.0
 10
22.98307198674887
 20
24.91065903642056
 42
0.0
 10
22.95184939254337
 20
24.99644240897697
 42
0.0
 10
22.91467472479025
 20
24.99644226117713
 42
0.0
 10
22.1228249324092
 20
24.99647522040117
 42
0.0
 97
        0
 92
        7
 72
     1
 73
     1
 93
       64
 10
22.12292636467287
 20
17.8541964841884
 42
0.0
 10
22.95182198674887
 20
17.8541964841884
 42
0.0
 10
22.98307198674887
 20
17.76833781483044
 42
0.0
 10
23.04557198674887
 20
17.94005515354636
 42
0.0
 10
23.07682198674887
 20
17.8541964841884
 42
0.0
 10
23.12292636474833
 20
17.85419827084711
 42
0.0
 10
23.122871399344
 20
21.72454705746222
 42
0.0
 10
23.09228904602222
 20
21.72454705746222
 42
0.0
 10
23.09562763448337
 20
21.71670213456721
 42
-1.0
 10
23.07366000771444
 20
21.70595782258026
 42
0.0
 10
23.06574892867529
 20
21.72454705746222
 42
0.0
 10
23.02144964699993
 20
21.72454705746222
 42
0.0
 10
23.02478823546106
 20
21.71670213456727
 42
-1.0
 10
23.00282060869213
 20
21.70595782258032
 42
0.0
 10
22.994909529653
 20
21.72454705746222
 42
0.0
 10
22.95061024797766
 20
21.72454705746222
 42
0.0
 10
22.9539488364388
 20
21.71670213456721
 42
-1.0
 10
22.93198120966985
 20
21.70595782258032
 42
0.0
 10
22.92407013063072
 20
21.72454705746222
 42
0.0
 10
22.87977084895537
 20
21.72454705746222
 42
0.0
 10
22.88310943741652
 20
21.71670213456721
 42
-1.0
 10
22.86114181064759
 20
21.70595782258026
 42
0.0
 10
22.85323073160844
 20
21.72454705746222
 42
0.0
 10
22.80893144993309
 20
21.72454705746222
 42
0.0
 10
22.81227003839422
 20
21.71670213456727
 42
-1.0
 10
22.79030241162529
 20
21.70595782258032
 42
0.0
 10
22.78239133258616
 20
21.72454705746222
 42
0.0
 10
22.73809205091081
 20
21.72454705746222
 42
0.0
 10
22.74143063937196
 20
21.71670213456721
 42
-1.0
 10
22.719463012603
 20
21.70595782258032
 42
0.0
 10
22.71155193356388
 20
21.72454705746222
 42
0.0
 10
22.66725265188853
 20
21.72454705746222
 42
0.0
 10
22.67059124034967
 20
21.71670213456721
 42
-1.0
 10
22.64862361358072
 20
21.70595782258032
 42
0.0
 10
22.64071253454159
 20
21.72454705746222
 42
0.0
 10
22.59641325286624
 20
21.72454705746222
 42
0.0
 10
22.59975184132739
 20
21.71670213456721
 42
-1.0
 10
22.57778421455846
 20
21.70595782258026
 42
0.0
 10
22.56987313551931
 20
21.72454705746222
 42
0.0
 10
22.52557385384396
 20
21.72454705746222
 42
0.0
 10
22.52891244230509
 20
21.71670213456727
 42
-1.0
 10
22.50694481553616
 20
21.70595782258032
 42
0.0
 10
22.49903373649703
 20
21.72454705746222
 42
0.0
 10
22.45473445482168
 20
21.72454705746222
 42
0.0
 10
22.45807304328283
 20
21.71670213456721
 42
-1.0
 10
22.43610541651388
 20
21.70595782258032
 42
0.0
 10
22.42819433747475
 20
21.72454705746222
 42
0.0
 10
22.3838950557994
 20
21.72454705746222
 42
0.0
 10
22.38723364426054
 20
21.71670213456721
 42
-1.0
 10
22.36526601749162
 20
21.70595782258026
 42
0.0
 10
22.35735493845247
 20
21.72454705746222
 42
0.0
 10
22.31305565677711
 20
21.72454705746222
 42
0.0
 10
22.31639424523824
 20
21.71670213456727
 42
-1.0
 10
22.29442661846931
 20
21.70595782258032
 42
0.0
 10
22.28651553943018
 20
21.72454705746222
 42
0.0
 10
22.24221625775483
 20
21.72454705746222
 42
0.0
 10
22.24555484621598
 20
21.71670213456721
 42
-1.0
 10
22.22358721944703
 20
21.70595782258032
 42
0.0
 10
22.2156761404079
 20
21.72454705746222
 42
0.0
 10
22.17137685873255
 20
21.72454705746222
 42
0.0
 10
22.1747154471937
 20
21.71670213456721
 42
-1.0
 10
22.15274782042475
 20
21.70595782258032
 42
0.0
 10
22.14483674138562
 20
21.72454705746222
 42
0.0
 10
22.12287139924315
 20
21.72454705746222
 42
0.0
 97
        0
 75
     1
 76
     1
 52
0.0
 41
0.75
 77
     0
 78
     3
 53
0.0
 43
24.86985833638791
 44
11.75609537410942
 45
0.0
 46
0.28125
 79
     0
 53
0.0
 43
24.86985833638791
 44
11.84984537410943
 45
0.0
 46
0.28125
 79
     2
 49
0.09375
 49
-0.09375
 53
0.0
 43
24.86985833638791
 44
11.94359537410943
 45
0.0
 46
0.28125
 79
     2
 49
0.09375
 49
-0.09375
 47
0.0083904137683401
 98
        2
 10
22.52742093712648
 20
22.98711012936391
 10
22.47705148871329
 20
20.28539688311804
1001
GradientColor1ACI
1070
     5
1001
GradientColor2ACI
1070
     2
1001
ACAD
1010
0.0
1020
0.0
1030
0.0
  0
HATCH
  5
15E5
330
1F
100
AcDbEntity
  8
HATCH
 62
     9
100
AcDbHatch
 10
0.0
 20
0.0
 30
0.0
210
0.0
220
0.0
230
1.0
  2
AR-SAND
 70
     0
 71
     0
 91
        1
 92
        1
 93
        6
 72
     1
 10
21.61479687593544
 20
24.47381511971834
 11
21.32624988207261
 21
24.56756972131317
 72
     1
 10
21.32624988207261
 20
24.56756972131317
 11
21.34073508634933
 21
24.61215059604827
 72
     1
 10
21.34073508634933
 20
24.61215059604827
 11
21.11479687593543
 21
24.61215059604827
 72
     2
 10
20.97417187593544
 20
24.42465059604827
 40
0.2343749999999981
 50
306.8698976458434
 51
413.1301023541566
 73
     0
 72
     1
 10
21.11479687593543
 20
24.23715059604827
 11
21.61479687593544
 21
24.23715059604827
 72
     1
 10
21.61479687593544
 20
24.23715059604827
 11
21.61479687593544
 21
24.47381511971834
 97
        0
 75
     0
 76
     1
 52
0.0
 41
0.05
 77
     0
 78
     4
 53
37.5
 43
16.80209965710469
 44
17.49649472248619
 45
-0.0031496679054804
 46
0.0963411884506579
 79
     6
 49
0.0
 49
-0.076
 49
0.0
 49
-0.085
 49
0.0
 49
-0.08125
 53
7.499999999999999
 43
16.80209965710469
 44
17.49649472248619
 45
0.0884888352633864
 46
0.141107303261487
 79
     6
 49
0.0
 49
-0.041
 49
0.0
 49
-0.0685
 49
0.0
 49
-0.02625
 53
327.5
 43
16.74059965710469
 44
17.49649472248619
 45
0.1557070930875748
 46
0.0002829526768482
 79
     6
 49
0.0
 49
-0.025
 49
0.0
 49
-0.09
 49
0.0
 49
-0.1175
 53
317.5
 43
16.74059965710469
 44
17.49649472248619
 45
0.1503063302286147
 46
0.0438837782467125
 79
     6
 49
0.0
 49
-0.0125
 49
0.0
 49
-0.059
 49
0.0
 49
-0.0675
 98
        1
 10
21.45761590009404
 20
24.52531007624132
1001
ACAD
1010
0.0
1020
0.0
1030
0.0
  0
LINE
  5
15E6
330
1F
100
AcDbEntity
  8
BRICK
100
AcDbLine
 10
21.61479687593544
 20
24.61215059604827
 30
0.0
 11
21.11479687593543
 21
24.61215059604827
 31
0.0
  0
LINE
  5
15E7
330
1F
100
AcDbEntity
  8
BRICK
100
AcDbLine
 10
21.11479687593543
 20
24.61215059604827
 30
0.0
 11
21.11479687593543
 21
24.99643296215466
 31
0.0
  0
LINE
  5
15E8
330
1F
100
AcDbEntity
  8
A-DE-10
100
AcDbLine
 10
21.34073508634933
 20
24.61215059604827
 30
0.0
 11
21.32624988207261
 21
24.56756972131316
 31
0.0
  0
LINE
  5
15E9
330
1F
100
AcDbEntity
  8
A-DE-10
100
AcDbLine
 10
21.66164862983252
 20
24.50787946498268
 30
0.0
 11
21.34073508634933
 21
24.61215059604827
 31
0.0
  0
LINE
  5
15EA
330
1F
100
AcDbEntity
  8
A-DE-10
100
AcDbLine
 10
21.32624988207261
 20
24.56756972131316
 30
0.0
 11
21.66164862983252
 21
24.45859206207412
 31
0.0
  0
LINE
  5
15EB
330
1F
100
AcDbEntity
  8
BRICK
100
AcDbLine
 10
21.61479687593544
 20
24.22205154443369
 30
0.0
 11
21.11479687593543
 21
24.22205154443369
 31
0.0
  0
LINE
  5
15EC
330
1F
100
AcDbEntity
  8
MORTAR
100
AcDbLine
 10
21.61479687593544
 20
24.61215059604827
 30
0.0
 11
21.61479687593544
 21
24.5231025226269
 31
0.0
  0
LINE
  5
15ED
330
1F
100
AcDbEntity
  8
MORTAR
100
AcDbLine
 10
21.61479687593543
 20
24.22205154443369
 30
0.0
 11
21.61479687593543
 21
24.47381511971834
 31
0.0
  0
ARC
  5
15EE
330
1F
100
AcDbEntity
  8
MORTAR
100
AcDbCircle
 10
20.97417187593544
 20
21.79965059604827
 30
0.0
 40
0.2343749999999981
100
AcDbArc
 50
306.8698976458433
 51
53.13010235415667
  0
LINE
  5
15EF
330
1F
100
AcDbEntity
  8
MORTAR
 48
0.2
100
AcDbLine
 10
21.61479687593544
 20
21.98715059604827
 30
0.0
 11
21.61479687593544
 21
21.8981025226269
 31
0.0
  0
LINE
  5
15F0
330
1F
100
AcDbEntity
  8
MORTAR
 48
0.2
100
AcDbLine
 10
21.61479687593543
 20
21.61215059604827
 30
0.0
 11
21.61479687593543
 21
21.84881511971834
 31
0.0
  0
LINE
  5
15F1
330
1F
100
AcDbEntity
  8
ADHESIVE
100
AcDbLine
 10
22.82099687610054
 20
24.99644011146425
 30
0.0
 11
22.86784862999762
 21
24.99644011146425
 31
0.0
  0
TEXT
  5
15F2
330
1F
100
AcDbEntity
  8
NOTES
100
AcDbText
 10
18.91995321240726
 20
24.06816960423644
 30
0.0
 40
0.09375
  1
SUBSTRATE
  7
DETAILS
100
AcDbText
  0
TEXT
  5
15F3
330
1F
100
AcDbEntity
  8
NOTES
100
AcDbText
 10
18.91995321240726
 20
23.4995126869617
 30
0.0
 40
0.09375
  1
AIR/WATER RESISTIVE
  7
DETAILS
100
AcDbText
  0
TEXT
  5
15F4
330
1F
100
AcDbEntity
  8
NOTES
100
AcDbText
 10
18.91995321240726
 20
23.34926065190534
 30
0.0
 40
0.09375
  1
BARRIER AS REQUIRED
  7
DETAILS
100
AcDbText
  0
TEXT
  5
15F5
330
1F
100
AcDbEntity
  8
NOTES
100
AcDbText
 10
18.91995321240726
 20
22.81781415871662
 30
0.0
 40
0.09375
  1
RIGID INSULATION 
  7
DETAILS
100
AcDbText
  0
TEXT
  5
15F6
330
1F
100
AcDbEntity
  8
NOTES
100
AcDbText
 10
18.91995321240726
 20
22.22776191209291
 30
0.0
 40
0.09375
  1
SUPPORT TIE
  7
DETAILS
100
AcDbText
  0
TEXT
  5
15F7
330
1F
100
AcDbEntity
  8
NOTES
100
AcDbText
 10
18.91995321240726
 20
21.76031112200339
 30
0.0
 40
0.09375
  1
MORTAR
  7
DETAILS
100
AcDbText
  0
TEXT
  5
15F8
330
1F
100
AcDbEntity
  8
NOTES
100
AcDbText
 10
18.91995321240726
 20
21.37513509528137
 30
0.0
 40
0.09375
  1
CORROSION RESISTANT
  7
DETAILS
100
AcDbText
  0
TEXT
  5
15F9
330
1F
100
AcDbEntity
  8
NOTES
100
AcDbText
 10
18.91995321240726
 20
21.22608166976866
 30
0.0
 40
0.09375
  1
FASTENER
  7
DETAILS
100
AcDbText
  0
TEXT
  5
15FA
330
1F
100
AcDbEntity
  8
NOTES
100
AcDbText
 10
18.91995321240726
 20
18.11414036579091
 30
0.0
 40
0.09375
  1
MASONRY VENEER
  7
DETAILS
100
AcDbText
  0
HATCH
  5
15FB
330
1F
100
AcDbEntity
  8
HATCH
 62
     9
100
AcDbHatch
 10
0.0
 20
0.0
 30
0.0
210
0.0
220
0.0
230
1.0
  2
ANSI31
 70
     0
 71
     0
 91
        1
 92
        1
 93
        4
 72
     1
 10
21.11479687593543
 20
17.8541964841884
 11
21.61479687593544
 21
17.8541964841884
 72
     1
 10
21.61479687593543
 20
17.8541964841884
 11
21.61479687593543
 21
18.98715059604827
 72
     1
 10
21.61479687593543
 20
18.98715059604827
 11
21.11479687593543
 21
18.98715059604827
 72
     1
 10
21.11479687593543
 20
18.98715059604827
 11
21.11479687593543
 21
17.8541964841884
 97
        0
 75
     0
 76
     1
 52
0.0
 41
1.5
 77
     0
 78
     1
 53
45.0
 43
23.28522538837757
 44
11.96559534288461
 45
-0.1325825214724776
 46
0.1325825214724777
 79
     0
 98
        1
 10
21.27132734408033
 20
18.42459176018191
1001
GradientColor1ACI
1070
     5
1001
GradientColor2ACI
1070
     2
1001
ACAD
1010
0.0
1020
0.0
1030
0.0
  0
HATCH
  5
15FC
330
1F
100
AcDbEntity
  8
HATCH
 62
     9
100
AcDbHatch
 10
0.0
 20
0.0
 30
0.0
210
0.0
220
0.0
230
1.0
  2
AR-SAND
 70
     0
 71
     0
 91
        1
 92
        1
 93
        6
 72
     1
 10
21.61479687593543
 20
19.22381511971833
 11
21.3262498820726
 21
19.31756972131316
 72
     1
 10
21.32624988207261
 20
19.31756972131316
 11
21.34073508634933
 21
19.36215059604826
 72
     1
 10
21.34073508634933
 20
19.36215059604826
 11
21.11479687593543
 21
19.36215059604826
 72
     2
 10
20.97417187593544
 20
19.17465059604827
 40
0.2343749999999981
 50
306.8698976458434
 51
413.1301023541566
 73
     0
 72
     1
 10
21.11479687593543
 20
18.98715059604827
 11
21.61479687593543
 21
18.98715059604827
 72
     1
 10
21.61479687593543
 20
18.98715059604827
 11
21.61479687593543
 21
19.22381511971834
 97
        0
 75
     0
 76
     1
 52
0.0
 41
0.05
 77
     0
 78
     4
 53
37.5
 43
16.80209965710469
 44
12.24649472248619
 45
-0.0031496679054804
 46
0.0963411884506579
 79
     6
 49
0.0
 49
-0.076
 49
0.0
 49
-0.085
 49
0.0
 49
-0.08125
 53
7.499999999999999
 43
16.80209965710469
 44
12.24649472248619
 45
0.0884888352633864
 46
0.141107303261487
 79
     6
 49
0.0
 49
-0.041
 49
0.0
 49
-0.0685
 49
0.0
 49
-0.02625
 53
327.5
 43
16.74059965710469
 44
12.24649472248619
 45
0.1557070930875748
 46
0.0002829526768482
 79
     6
 49
0.0
 49
-0.025
 49
0.0
 49
-0.09
 49
0.0
 49
-0.1175
 53
317.5
 43
16.74059965710469
 44
12.24649472248619
 45
0.1503063302286147
 46
0.0438837782467125
 79
     6
 49
0.0
 49
-0.0125
 49
0.0
 49
-0.059
 49
0.0
 49
-0.0675
 98
        1
 10
21.45761590009403
 20
19.27531007624132
1001
ACAD
1010
0.0
1020
0.0
1030
0.0
  0
LINE
  5
15FD
330
1F
100
AcDbEntity
  8
BRICK
100
AcDbLine
 10
21.61479687593543
 20
17.8541964841884
 30
0.0
 11
21.61479687593543
 21
18.98715059604827
 31
0.0
  0
LINE
  5
15FE
330
1F
100
AcDbEntity
  8
BRICK
100
AcDbLine
 10
21.61479687593543
 20
18.98715059604827
 30
0.0
 11
21.11479687593543
 21
18.98715059604827
 31
0.0
  0
LINE
  5
15FF
330
1F
100
AcDbEntity
  8
BRICK
100
AcDbLine
 10
21.11479687593543
 20
18.98715059604827
 30
0.0
 11
21.11479687593543
 21
17.8541964841884
 31
0.0
  0
ARC
  5
1600
330
1F
100
AcDbEntity
  8
MORTAR
100
AcDbCircle
 10
20.97417187593544
 20
19.17465059604827
 30
0.0
 40
0.2343749999999981
100
AcDbArc
 50
306.8698976458433
 51
53.13010235415667
  0
LINE
  5
1601
330
1F
100
AcDbEntity
  8
MORTAR
100
AcDbLine
 10
21.61479687593543
 20
19.36215059604826
 30
0.0
 11
21.61479687593543
 21
19.2731025226269
 31
0.0
  0
LINE
  5
1602
330
1F
100
AcDbEntity
  8
MORTAR
100
AcDbLine
 10
21.61479687593543
 20
18.98715059604827
 30
0.0
 11
21.61479687593543
 21
19.22381511971833
 31
0.0
  0
LWPOLYLINE
  5
1603
330
1F
100
AcDbEntity
  8
INSULATION
100
AcDbPolyline
 90
        2
 70
     0
 43
0.0
 10
22.12292636467287
 20
17.8541964841884
 10
22.12282493286668
 20
24.99644300673665
  0
LWPOLYLINE
  5
1604
330
1F
100
AcDbEntity
  8
INSULATION
100
AcDbPolyline
 90
        2
 70
     0
 43
0.0
 10
23.12292636474833
 20
17.85419827084711
 10
23.12282493276584
 20
24.99645720840357
  0
ARC
  5
1605
330
1F
100
AcDbEntity
  8
MORTAR
100
AcDbCircle
 10
20.95876884917466
 20
24.41710107024098
 30
0.0
 40
0.2497780267607852
100
AcDbArc
 50
308.6577315459357
 51
51.34226845406438
  0
LEADER
  5
1607
330
1F
100
AcDbEntity
  8
LEADERS
100
AcDbLeader
  3
Standard
 76
     2
 10
21.66164862983251
 20
19.70775402761909
 30
0.0
 10
19.96149656549318
 20
19.70775402761909
 30
0.0
1001
ACAD
1000
DSTYLE
1002
{
1070
   147
1040
0.09375
1070
    77
1070
     0
1070
    41
1040
0.1875
1070
    90
1070
     1
1002
}
  0
LEADER
  5
1608
330
1F
100
AcDbEntity
  8
LEADERS
100
AcDbLeader
  3
Standard
 76
     2
 10
21.61479687593543
 20
18.70937372914488
 30
0.0
 10
19.61924244360332
 20
18.70937372914488
 30
0.0
1001
ACAD
1000
DSTYLE
1002
{
1070
   147
1040
0.09375
1070
    77
1070
     0
1070
    41
1040
0.1875
1070
    90
1070
     1
1002
}
  0
TEXT
  5
1609
330
1F
100
AcDbEntity
  8
NOTES
100
AcDbText
 10
18.91995321240726
 20
18.66723792346195
 30
0.0
 40
0.09375
  1
ADHESIVE
  7
DETAILS
100
AcDbText
  0
TEXT
  5
160A
330
1F
100
AcDbEntity
  8
NOTES
100
AcDbText
 10
18.91995321240726
 20
19.65629003580196
 30
0.0
 40
0.0938
  1
ELITE PANEL
  7
DETAILS
100
AcDbText
  0
LINE
  5
160C
330
1F
100
AcDbEntity
  8
WALL CONSTRUCTION
100
AcDbLine
 10
23.75685295333672
 20
24.99649187356057
 30
0.0
 11
23.75685295333672
 21
17.85422283707072
 31
0.0
  0
LEADER
  5
160D
330
1F
100
AcDbEntity
  8
LEADERS
100
AcDbLeader
  3
Standard
 76
     2
 10
24.49822345617854
 20
24.76688557703693
 30
0.0
 10
20.6446153836058
 20
24.76688557703693
 30
0.0
1001
ACAD
1000
DSTYLE
1002
{
1070
   147
1040
0.09375
1070
    77
1070
     0
1070
    41
1040
0.1875
1070
    90
1070
     1
1002
}
  0
TEXT
  5
160E
330
1F
100
AcDbEntity
  8
NOTES
100
AcDbText
 10
18.91995321240726
 20
24.72280964972455
 30
0.0
 40
0.09375
  1
WALL CONSTRUCTION
  7
DETAILS
100
AcDbText
  0
LINE
  5
1616
330
1F
100
AcDbEntity
  8
SCREW
  6
HIDDEN
 48
0.2
100
AcDbLine
 10
22.17471544719368
 20
21.71670213456724
 30
0.0
 11
22.10952758439869
 21
21.8698787729185
 31
0.0
  0
LINE
  5
1617
330
1F
100
AcDbEntity
  8
SCREW
  6
HIDDEN
 48
0.2
100
AcDbLine
 10
22.15274782042473
 20
21.70595782258036
 30
0.0
 11
22.10224316242141
 21
21.82463227212256
 31
0.0
  0
LINE
  5
1618
330
1F
100
AcDbEntity
  8
SCREW
  6
HIDDEN
 48
0.2
100
AcDbLine
 10
22.24555484621597
 20
21.71670213456724
 30
0.0
 11
22.18036698342098
 21
21.8698787729185
 31
0.0
  0
LINE
  5
1619
330
1F
100
AcDbEntity
  8
SCREW
  6
HIDDEN
 48
0.2
100
AcDbLine
 10
22.22358721944701
 20
21.70595782258036
 30
0.0
 11
22.15789654354014
 21
21.86031595728531
 31
0.0
  0
LINE
  5
161A
330
1F
100
AcDbEntity
  8
SCREW
  6
HIDDEN
 48
0.2
100
AcDbLine
 10
22.31639424523825
 20
21.71670213456724
 30
0.0
 11
22.25120638244325
 21
21.8698787729185
 31
0.0
  0
LINE
  5
161B
330
1F
100
AcDbEntity
  8
SCREW
  6
HIDDEN
 48
0.2
100
AcDbLine
 10
22.29442661846929
 20
21.70595782258036
 30
0.0
 11
22.22873594256242
 21
21.86031595728531
 31
0.0
  0
LINE
  5
161C
330
1F
100
AcDbEntity
  8
SCREW
  6
HIDDEN
 48
0.2
100
AcDbLine
 10
22.38723364426053
 20
21.71670213456724
 30
0.0
 11
22.32204578146554
 21
21.8698787729185
 31
0.0
  0
LINE
  5
161D
330
1F
100
AcDbEntity
  8
SCREW
  6
HIDDEN
 48
0.2
100
AcDbLine
 10
22.36526601749158
 20
21.70595782258036
 30
0.0
 11
22.2995753415847
 21
21.86031595728531
 31
0.0
  0
LINE
  5
161E
330
1F
100
AcDbEntity
  8
SCREW
  6
HIDDEN
 48
0.2
100
AcDbLine
 10
22.45807304328281
 20
21.71670213456724
 30
0.0
 11
22.39288518048782
 21
21.8698787729185
 31
0.0
  0
LINE
  5
161F
330
1F
100
AcDbEntity
  8
SCREW
  6
HIDDEN
 48
0.2
100
AcDbLine
 10
22.43610541651386
 20
21.70595782258036
 30
0.0
 11
22.37041474060699
 21
21.86031595728531
 31
0.0
  0
LINE
  5
1620
330
1F
100
AcDbEntity
  8
SCREW
  6
HIDDEN
 48
0.2
100
AcDbLine
 10
22.52891244230509
 20
21.71670213456724
 30
0.0
 11
22.4637245795101
 21
21.8698787729185
 31
0.0
  0
LINE
  5
1621
330
1F
100
AcDbEntity
  8
SCREW
  6
HIDDEN
 48
0.2
100
AcDbLine
 10
22.50694481553614
 20
21.70595782258036
 30
0.0
 11
22.44125413962926
 21
21.86031595728531
 31
0.0
  0
LINE
  5
1622
330
1F
100
AcDbEntity
  8
SCREW
  6
HIDDEN
 48
0.2
100
AcDbLine
 10
22.59975184132738
 20
21.71670213456724
 30
0.0
 11
22.53456397853238
 21
21.8698787729185
 31
0.0
  0
LINE
  5
1623
330
1F
100
AcDbEntity
  8
SCREW
  6
HIDDEN
 48
0.2
100
AcDbLine
 10
22.57778421455842
 20
21.70595782258036
 30
0.0
 11
22.51209353865155
 21
21.86031595728531
 31
0.0
  0
LINE
  5
1624
330
1F
100
AcDbEntity
  8
SCREW
  6
HIDDEN
 48
0.2
100
AcDbLine
 10
22.67059124034966
 20
21.71670213456724
 30
0.0
 11
22.60540337755466
 21
21.8698787729185
 31
0.0
  0
LINE
  5
1625
330
1F
100
AcDbEntity
  8
SCREW
  6
HIDDEN
 48
0.2
100
AcDbLine
 10
22.6486236135807
 20
21.70595782258036
 30
0.0
 11
22.58293293767383
 21
21.86031595728531
 31
0.0
  0
LINE
  5
1626
330
1F
100
AcDbEntity
  8
SCREW
  6
HIDDEN
 48
0.2
100
AcDbLine
 10
22.74143063937194
 20
21.71670213456724
 30
0.0
 11
22.67624277657695
 21
21.8698787729185
 31
0.0
  0
LINE
  5
1627
330
1F
100
AcDbEntity
  8
SCREW
  6
HIDDEN
 48
0.2
100
AcDbLine
 10
22.71946301260299
 20
21.70595782258036
 30
0.0
 11
22.65377233669612
 21
21.86031595728531
 31
0.0
  0
LINE
  5
1628
330
1F
100
AcDbEntity
  8
SCREW
  6
HIDDEN
 48
0.2
100
AcDbLine
 10
22.81227003839422
 20
21.71670213456724
 30
0.0
 11
22.74708217559923
 21
21.8698787729185
 31
0.0
  0
LINE
  5
1629
330
1F
100
AcDbEntity
  8
SCREW
  6
HIDDEN
 48
0.2
100
AcDbLine
 10
22.79030241162527
 20
21.70595782258036
 30
0.0
 11
22.72461173571839
 21
21.86031595728531
 31
0.0
  0
LINE
  5
162A
330
1F
100
AcDbEntity
  8
SCREW
  6
HIDDEN
 48
0.2
100
AcDbLine
 10
22.88310943741651
 20
21.71670213456724
 30
0.0
 11
22.81792157462151
 21
21.8698787729185
 31
0.0
  0
LINE
  5
162B
330
1F
100
AcDbEntity
  8
SCREW
  6
HIDDEN
 48
0.2
100
AcDbLine
 10
22.86114181064755
 20
21.70595782258036
 30
0.0
 11
22.79545113474068
 21
21.86031595728531
 31
0.0
  0
LINE
  5
162C
330
1F
100
AcDbEntity
  8
SCREW
  6
HIDDEN
 48
0.2
100
AcDbLine
 10
22.95394883643879
 20
21.71670213456724
 30
0.0
 11
22.88876097364379
 21
21.8698787729185
 31
0.0
  0
LINE
  5
162D
330
1F
100
AcDbEntity
  8
SCREW
  6
HIDDEN
 48
0.2
100
AcDbLine
 10
22.93198120966983
 20
21.70595782258036
 30
0.0
 11
22.86629053376296
 21
21.86031595728531
 31
0.0
  0
LINE
  5
162E
330
1F
100
AcDbEntity
  8
SCREW
  6
HIDDEN
 48
0.2
100
AcDbLine
 10
23.02478823546107
 20
21.71670213456724
 30
0.0
 11
22.95960037266608
 21
21.8698787729185
 31
0.0
  0
LINE
  5
162F
330
1F
100
AcDbEntity
  8
SCREW
  6
HIDDEN
 48
0.2
100
AcDbLine
 10
23.00282060869212
 20
21.70595782258036
 30
0.0
 11
22.93712993278524
 21
21.86031595728531
 31
0.0
  0
LINE
  5
1630
330
1F
100
AcDbEntity
  8
SCREW
  6
HIDDEN
 48
0.2
100
AcDbLine
 10
23.09562763448335
 20
21.71670213456724
 30
0.0
 11
23.03043977168836
 21
21.8698787729185
 31
0.0
  0
LINE
  5
1631
330
1F
100
AcDbEntity
  8
SCREW
  6
HIDDEN
 48
0.2
100
AcDbLine
 10
23.0736600077144
 20
21.70595782258036
 30
0.0
 11
23.00796933180752
 21
21.86031595728531
 31
0.0
  0
LINE
  5
1632
330
1F
100
AcDbEntity
  8
SCREW
  6
HIDDEN
 48
0.2
100
AcDbLine
 10
24.23730643252792
 20
21.71670213456724
 30
0.0
 11
24.17211856973292
 21
21.8698787729185
 31
0.0
  0
LINE
  5
1633
330
1F
100
AcDbEntity
  8
SCREW
  6
HIDDEN
 48
0.2
100
AcDbLine
 10
24.21483599264786
 20
21.70713931893221
 30
0.0
 11
24.14964812985209
 21
21.86031595728531
 31
0.0
  0
LINE
  5
1634
330
1F
100
AcDbEntity
  8
SCREW
  6
HIDDEN
 48
0.2
100
AcDbLine
 10
24.3066334142395
 20
21.71670213456724
 30
0.0
 11
24.24144555144451
 21
21.8698787729185
 31
0.0
  0
LINE
  5
1635
330
1F
100
AcDbEntity
  8
SCREW
  6
HIDDEN
 48
0.2
100
AcDbLine
 10
24.28466578747055
 20
21.70595782258036
 30
0.0
 11
24.21897511156367
 21
21.86031595728531
 31
0.0
  0
ARC
  5
163C
330
1F
100
AcDbEntity
  8
SCREW
  6
HIDDEN
 48
0.2
100
AcDbCircle
 10
24.93367040787231
 20
21.7948933881256
 30
0.0
 40
0.0161267757294318
100
AcDbArc
 50
0.0
 51
90.0000000000171
  0
ARC
  5
163D
330
1F
100
AcDbEntity
  8
SCREW
  6
HIDDEN
 48
0.2
100
AcDbCircle
 10
25.04528219258875
 20
21.24890869765644
 30
0.0
 40
0.5414855494839421
100
AcDbArc
 50
101.8951553356812
 51
117.0150992582616
  0
ARC
  5
163E
330
1F
100
AcDbEntity
  8
SCREW
  6
HIDDEN
 48
0.2
100
AcDbCircle
 10
24.93367040787231
 20
21.7948933881256
 30
0.0
 40
0.0161267757294318
100
AcDbArc
 50
269.9999999999829
 51
0.0
  0
ARC
  5
163F
330
1F
100
AcDbEntity
  8
SCREW
  6
HIDDEN
 48
0.2
100
AcDbCircle
 10
25.04528219258875
 20
22.34087807859477
 30
0.0
 40
0.5414855494839421
100
AcDbArc
 50
240.0518963641911
 51
258.1048446643186
  0
LINE
  5
1644
330
1F
100
AcDbEntity
  8
SCREW
  6
HIDDEN
 48
0.2
100
AcDbLine
 10
22.10685565661203
 20
21.72454705746222
 30
0.0
 11
22.14483674138562
 21
21.72454705746222
 31
0.0
  0
ARC
  5
1646
330
1F
100
AcDbEntity
  8
SCREW
  6
HIDDEN
 48
0.2
100
AcDbCircle
 10
22.16373163380921
 20
21.7113299785738
 30
0.0
 40
0.0122271916842302
100
AcDbArc
 50
200.0434587331203
 51
26.06314271735298
  0
ARC
  5
1647
330
1F
100
AcDbEntity
  8
SCREW
  6
HIDDEN
 48
0.2
100
AcDbCircle
 10
22.09804095790241
 20
21.8656881132786
 30
0.0
 40
0.0122271916842302
100
AcDbArc
 50
20.0434587308118
 51
69.90266742381493
  0
LINE
  5
1648
330
1F
100
AcDbEntity
  8
SCREW
  6
HIDDEN
 48
0.2
100
AcDbLine
 10
22.17137685873255
 20
21.72454705746222
 30
0.0
 11
22.2156761404079
 21
21.72454705746222
 31
0.0
  0
LINE
  5
1649
330
1F
100
AcDbEntity
  8
SCREW
  6
HIDDEN
 48
0.2
100
AcDbLine
 10
22.15667676460331
 20
21.8649288037657
 30
0.0
 11
22.11163415830868
 21
21.86492880376571
 31
0.0
  0
ARC
  5
164A
330
1F
100
AcDbEntity
  8
SCREW
  6
HIDDEN
 48
0.2
100
AcDbCircle
 10
22.23457103283149
 20
21.7113299785738
 30
0.0
 40
0.0122271916842302
100
AcDbArc
 50
200.0434587331203
 51
26.06314271735298
  0
ARC
  5
164B
330
1F
100
AcDbEntity
  8
SCREW
  6
HIDDEN
 48
0.2
100
AcDbCircle
 10
22.16888035692469
 20
21.8656881132786
 30
0.0
 40
0.0122271916842302
100
AcDbArc
 50
20.0434587308118
 51
206.0631427159179
  0
LINE
  5
164C
330
1F
100
AcDbEntity
  8
SCREW
  6
HIDDEN
 48
0.2
100
AcDbLine
 10
22.24221625775482
 20
21.72454705746222
 30
0.0
 11
22.28651553943018
 21
21.72454705746222
 31
0.0
  0
LINE
  5
164D
330
1F
100
AcDbEntity
  8
SCREW
  6
HIDDEN
 48
0.2
100
AcDbLine
 10
22.22751616362559
 20
21.8649288037657
 30
0.0
 11
22.18247355733096
 21
21.86492880376571
 31
0.0
  0
ARC
  5
164E
330
1F
100
AcDbEntity
  8
SCREW
  6
HIDDEN
 48
0.2
100
AcDbCircle
 10
22.30541043185377
 20
21.7113299785738
 30
0.0
 40
0.0122271916842302
100
AcDbArc
 50
200.0434587331203
 51
26.06314271735279
  0
ARC
  5
164F
330
1F
100
AcDbEntity
  8
SCREW
  6
HIDDEN
 48
0.2
100
AcDbCircle
 10
22.23971975594698
 20
21.8656881132786
 30
0.0
 40
0.0122271916842302
100
AcDbArc
 50
20.0434587308118
 51
206.0631427159179
  0
LINE
  5
1650
330
1F
100
AcDbEntity
  8
SCREW
  6
HIDDEN
 48
0.2
100
AcDbLine
 10
22.31305565677711
 20
21.72454705746222
 30
0.0
 11
22.35735493845247
 21
21.72454705746222
 31
0.0
  0
LINE
  5
1651
330
1F
100
AcDbEntity
  8
SCREW
  6
HIDDEN
 48
0.2
100
AcDbLine
 10
22.29835556264788
 20
21.8649288037657
 30
0.0
 11
22.25331295635324
 21
21.86492880376571
 31
0.0
  0
ARC
  5
1652
330
1F
100
AcDbEntity
  8
SCREW
  6
HIDDEN
 48
0.2
100
AcDbCircle
 10
22.37624983087605
 20
21.7113299785738
 30
0.0
 40
0.0122271916842302
100
AcDbArc
 50
200.0434587331203
 51
26.06314271735279
  0
ARC
  5
1653
330
1F
100
AcDbEntity
  8
SCREW
  6
HIDDEN
 48
0.2
100
AcDbCircle
 10
22.31055915496925
 20
21.8656881132786
 30
0.0
 40
0.0122271916842302
100
AcDbArc
 50
20.0434587308118
 51
206.0631427159179
  0
LINE
  5
1654
330
1F
100
AcDbEntity
  8
SCREW
  6
HIDDEN
 48
0.2
100
AcDbLine
 10
22.38389505579939
 20
21.72454705746222
 30
0.0
 11
22.42819433747475
 21
21.72454705746222
 31
0.0
  0
LINE
  5
1655
330
1F
100
AcDbEntity
  8
SCREW
  6
HIDDEN
 48
0.2
100
AcDbLine
 10
22.36919496167015
 20
21.8649288037657
 30
0.0
 11
22.32415235537553
 21
21.86492880376571
 31
0.0
  0
ARC
  5
1656
330
1F
100
AcDbEntity
  8
SCREW
  6
HIDDEN
 48
0.2
100
AcDbCircle
 10
22.44708922989834
 20
21.7113299785738
 30
0.0
 40
0.0122271916842302
100
AcDbArc
 50
200.0434587331203
 51
26.06314271735279
  0
ARC
  5
1657
330
1F
100
AcDbEntity
  8
SCREW
  6
HIDDEN
 48
0.2
100
AcDbCircle
 10
22.38139855399154
 20
21.8656881132786
 30
0.0
 40
0.0122271916842302
100
AcDbArc
 50
20.0434587308118
 51
206.0631427159179
  0
LINE
  5
1658
330
1F
100
AcDbEntity
  8
SCREW
  6
HIDDEN
 48
0.2
100
AcDbLine
 10
22.45473445482168
 20
21.72454705746222
 30
0.0
 11
22.49903373649703
 21
21.72454705746222
 31
0.0
  0
LINE
  5
1659
330
1F
100
AcDbEntity
  8
SCREW
  6
HIDDEN
 48
0.2
100
AcDbLine
 10
22.44003436069244
 20
21.8649288037657
 30
0.0
 11
22.39499175439781
 21
21.86492880376571
 31
0.0
  0
ARC
  5
165A
330
1F
100
AcDbEntity
  8
SCREW
  6
HIDDEN
 48
0.2
100
AcDbCircle
 10
22.51792862892062
 20
21.7113299785738
 30
0.0
 40
0.0122271916842302
100
AcDbArc
 50
200.0434587331203
 51
26.06314271735279
  0
ARC
  5
165B
330
1F
100
AcDbEntity
  8
SCREW
  6
HIDDEN
 48
0.2
100
AcDbCircle
 10
22.45223795301382
 20
21.8656881132786
 30
0.0
 40
0.0122271916842302
100
AcDbArc
 50
20.0434587308118
 51
206.0631427159179
  0
LINE
  5
165C
330
1F
100
AcDbEntity
  8
SCREW
  6
HIDDEN
 48
0.2
100
AcDbLine
 10
22.52557385384395
 20
21.72454705746222
 30
0.0
 11
22.56987313551931
 21
21.72454705746222
 31
0.0
  0
LINE
  5
165D
330
1F
100
AcDbEntity
  8
SCREW
  6
HIDDEN
 48
0.2
100
AcDbLine
 10
22.51087375971472
 20
21.8649288037657
 30
0.0
 11
22.46583115342009
 21
21.86492880376571
 31
0.0
  0
ARC
  5
165E
330
1F
100
AcDbEntity
  8
SCREW
  6
HIDDEN
 48
0.2
100
AcDbCircle
 10
22.5887680279429
 20
21.7113299785738
 30
0.0
 40
0.0122271916842302
100
AcDbArc
 50
200.0434587331203
 51
26.06314271735279
  0
ARC
  5
165F
330
1F
100
AcDbEntity
  8
SCREW
  6
HIDDEN
 48
0.2
100
AcDbCircle
 10
22.5230773520361
 20
21.8656881132786
 30
0.0
 40
0.0122271916842302
100
AcDbArc
 50
20.0434587308118
 51
206.0631427159179
  0
LINE
  5
1660
330
1F
100
AcDbEntity
  8
SCREW
  6
HIDDEN
 48
0.2
100
AcDbLine
 10
22.59641325286624
 20
21.72454705746222
 30
0.0
 11
22.6407125345416
 21
21.72454705746222
 31
0.0
  0
LINE
  5
1661
330
1F
100
AcDbEntity
  8
SCREW
  6
HIDDEN
 48
0.2
100
AcDbLine
 10
22.581713158737
 20
21.8649288037657
 30
0.0
 11
22.53667055244237
 21
21.86492880376571
 31
0.0
  0
ARC
  5
1662
330
1F
100
AcDbEntity
  8
SCREW
  6
HIDDEN
 48
0.2
100
AcDbCircle
 10
22.65960742696518
 20
21.7113299785738
 30
0.0
 40
0.0122271916842302
100
AcDbArc
 50
200.0434587331203
 51
26.06314271735279
  0
ARC
  5
1663
330
1F
100
AcDbEntity
  8
SCREW
  6
HIDDEN
 48
0.2
100
AcDbCircle
 10
22.59391675105838
 20
21.8656881132786
 30
0.0
 40
0.0122271916842302
100
AcDbArc
 50
20.0434587308118
 51
206.0631427159179
  0
LINE
  5
1664
330
1F
100
AcDbEntity
  8
SCREW
  6
HIDDEN
 48
0.2
100
AcDbLine
 10
22.66725265188852
 20
21.72454705746222
 30
0.0
 11
22.71155193356388
 21
21.72454705746222
 31
0.0
  0
LINE
  5
1665
330
1F
100
AcDbEntity
  8
SCREW
  6
HIDDEN
 48
0.2
100
AcDbLine
 10
22.65255255775928
 20
21.8649288037657
 30
0.0
 11
22.60750995146465
 21
21.86492880376571
 31
0.0
  0
ARC
  5
1666
330
1F
100
AcDbEntity
  8
SCREW
  6
HIDDEN
 48
0.2
100
AcDbCircle
 10
22.73044682598746
 20
21.7113299785738
 30
0.0
 40
0.0122271916842302
100
AcDbArc
 50
200.0434587331203
 51
26.06314271735279
  0
ARC
  5
1667
330
1F
100
AcDbEntity
  8
SCREW
  6
HIDDEN
 48
0.2
100
AcDbCircle
 10
22.66475615008067
 20
21.8656881132786
 30
0.0
 40
0.0122271916842302
100
AcDbArc
 50
20.0434587308118
 51
206.0631427159179
  0
LINE
  5
1668
330
1F
100
AcDbEntity
  8
SCREW
  6
HIDDEN
 48
0.2
100
AcDbLine
 10
22.7380920509108
 20
21.72454705746222
 30
0.0
 11
22.78239133258616
 21
21.72454705746222
 31
0.0
  0
LINE
  5
1669
330
1F
100
AcDbEntity
  8
SCREW
  6
HIDDEN
 48
0.2
100
AcDbLine
 10
22.72339195678156
 20
21.8649288037657
 30
0.0
 11
22.67834935048694
 21
21.86492880376571
 31
0.0
  0
ARC
  5
166A
330
1F
100
AcDbEntity
  8
SCREW
  6
HIDDEN
 48
0.2
100
AcDbCircle
 10
22.80128622500975
 20
21.7113299785738
 30
0.0
 40
0.0122271916842302
100
AcDbArc
 50
200.0434587331203
 51
26.06314271735279
  0
ARC
  5
166B
330
1F
100
AcDbEntity
  8
SCREW
  6
HIDDEN
 48
0.2
100
AcDbCircle
 10
22.73559554910295
 20
21.8656881132786
 30
0.0
 40
0.0122271916842302
100
AcDbArc
 50
20.0434587308118
 51
206.0631427159179
  0
LINE
  5
166C
330
1F
100
AcDbEntity
  8
SCREW
  6
HIDDEN
 48
0.2
100
AcDbLine
 10
22.80893144993308
 20
21.72454705746222
 30
0.0
 11
22.85323073160844
 21
21.72454705746222
 31
0.0
  0
LINE
  5
166D
330
1F
100
AcDbEntity
  8
SCREW
  6
HIDDEN
 48
0.2
100
AcDbLine
 10
22.79423135580385
 20
21.8649288037657
 30
0.0
 11
22.74918874950921
 21
21.86492880376571
 31
0.0
  0
ARC
  5
166E
330
1F
100
AcDbEntity
  8
SCREW
  6
HIDDEN
 48
0.2
100
AcDbCircle
 10
22.87212562403203
 20
21.7113299785738
 30
0.0
 40
0.0122271916842302
100
AcDbArc
 50
200.0434587331203
 51
26.06314271735279
  0
ARC
  5
166F
330
1F
100
AcDbEntity
  8
SCREW
  6
HIDDEN
 48
0.2
100
AcDbCircle
 10
22.80643494812523
 20
21.8656881132786
 30
0.0
 40
0.0122271916842302
100
AcDbArc
 50
20.0434587308118
 51
206.0631427159179
  0
LINE
  5
1670
330
1F
100
AcDbEntity
  8
SCREW
  6
HIDDEN
 48
0.2
100
AcDbLine
 10
22.87977084895537
 20
21.72454705746222
 30
0.0
 11
22.92407013063073
 21
21.72454705746222
 31
0.0
  0
LINE
  5
1671
330
1F
100
AcDbEntity
  8
SCREW
  6
HIDDEN
 48
0.2
100
AcDbLine
 10
22.86507075482613
 20
21.8649288037657
 30
0.0
 11
22.8200281485315
 21
21.86492880376571
 31
0.0
  0
ARC
  5
1672
330
1F
100
AcDbEntity
  8
SCREW
  6
HIDDEN
 48
0.2
100
AcDbCircle
 10
22.94296502305431
 20
21.7113299785738
 30
0.0
 40
0.0122271916842302
100
AcDbArc
 50
200.0434587331203
 51
26.06314271735279
  0
ARC
  5
1673
330
1F
100
AcDbEntity
  8
SCREW
  6
HIDDEN
 48
0.2
100
AcDbCircle
 10
22.87727434714751
 20
21.8656881132786
 30
0.0
 40
0.0122271916842302
100
AcDbArc
 50
20.0434587308118
 51
206.0631427159179
  0
LINE
  5
1674
330
1F
100
AcDbEntity
  8
SCREW
  6
HIDDEN
 48
0.2
100
AcDbLine
 10
22.95061024797765
 20
21.72454705746222
 30
0.0
 11
22.994909529653
 21
21.72454705746222
 31
0.0
  0
LINE
  5
1675
330
1F
100
AcDbEntity
  8
SCREW
  6
HIDDEN
 48
0.2
100
AcDbLine
 10
22.93591015384841
 20
21.8649288037657
 30
0.0
 11
22.89086754755378
 21
21.86492880376571
 31
0.0
  0
ARC
  5
1676
330
1F
100
AcDbEntity
  8
SCREW
  6
HIDDEN
 48
0.2
100
AcDbCircle
 10
23.01380442207659
 20
21.7113299785738
 30
0.0
 40
0.0122271916842302
100
AcDbArc
 50
200.0434587331203
 51
26.06314271735279
  0
ARC
  5
1677
330
1F
100
AcDbEntity
  8
SCREW
  6
HIDDEN
 48
0.2
100
AcDbCircle
 10
22.9481137461698
 20
21.8656881132786
 30
0.0
 40
0.0122271916842302
100
AcDbArc
 50
20.0434587308118
 51
206.0631427159179
  0
LINE
  5
1678
330
1F
100
AcDbEntity
  8
SCREW
  6
HIDDEN
 48
0.2
100
AcDbLine
 10
23.02144964699993
 20
21.72454705746222
 30
0.0
 11
23.06574892867529
 21
21.72454705746222
 31
0.0
  0
LINE
  5
1679
330
1F
100
AcDbEntity
  8
SCREW
  6
HIDDEN
 48
0.2
100
AcDbLine
 10
23.00674955287069
 20
21.8649288037657
 30
0.0
 11
22.96170694657607
 21
21.86492880376571
 31
0.0
  0
ARC
  5
167A
330
1F
100
AcDbEntity
  8
SCREW
  6
HIDDEN
 48
0.2
100
AcDbCircle
 10
23.08464382109887
 20
21.7113299785738
 30
0.0
 40
0.0122271916842302
100
AcDbArc
 50
200.0434587331203
 51
26.06314271735279
  0
ARC
  5
167B
330
1F
100
AcDbEntity
  8
SCREW
  6
HIDDEN
 48
0.2
100
AcDbCircle
 10
23.01895314519208
 20
21.8656881132786
 30
0.0
 40
0.0122271916842302
100
AcDbArc
 50
20.0434587308118
 51
206.0631427159179
  0
LINE
  5
167C
330
1F
100
AcDbEntity
  8
SCREW
  6
HIDDEN
 48
0.2
100
AcDbLine
 10
23.09228904602221
 20
21.72454705746222
 30
0.0
 11
23.1451362837556
 21
21.72454705746222
 31
0.0
  0
LINE
  5
167D
330
1F
100
AcDbEntity
  8
SCREW
  6
HIDDEN
 48
0.2
100
AcDbLine
 10
23.08588483972699
 20
21.8649288037657
 30
0.0
 11
23.03254634559834
 21
21.86492880376571
 31
0.0
  0
ARC
  5
167E
330
1F
100
AcDbEntity
  8
SCREW
  6
HIDDEN
 48
0.2
100
AcDbCircle
 10
24.15548322012116
 20
21.7113299785738
 30
0.0
 40
0.0122271916842302
100
AcDbArc
 50
200.0434587331203
 51
26.06314271735279
  0
LINE
  5
167F
330
1F
100
AcDbEntity
  8
SCREW
  6
HIDDEN
 48
0.2
100
AcDbLine
 10
24.1631284450445
 20
21.72454705746222
 30
0.0
 11
24.20742772671985
 21
21.72454705746222
 31
0.0
  0
ARC
  5
1680
330
1F
100
AcDbEntity
  8
SCREW
  6
HIDDEN
 48
0.2
100
AcDbCircle
 10
24.22632261914344
 20
21.7113299785738
 30
0.0
 40
0.0122271916842302
100
AcDbArc
 50
200.0434587413493
 51
26.06314271735279
  0
ARC
  5
1681
330
1F
100
AcDbEntity
  8
SCREW
  6
HIDDEN
 48
0.2
100
AcDbCircle
 10
24.16063194323664
 20
21.8656881132786
 30
0.0
 40
0.0122271916842302
100
AcDbArc
 50
20.0434587308118
 51
206.0631427159179
  0
LINE
  5
1682
330
1F
100
AcDbEntity
  8
SCREW
  6
HIDDEN
 48
0.2
100
AcDbLine
 10
24.23396784406678
 20
21.72454705746222
 30
0.0
 11
24.27826712574213
 21
21.72454705746222
 31
0.0
  0
LINE
  5
1683
330
1F
100
AcDbEntity
  8
SCREW
  6
HIDDEN
 48
0.2
100
AcDbLine
 10
24.21775533262684
 20
21.8649288037657
 30
0.0
 11
24.17422514364291
 21
21.86492880376571
 31
0.0
  0
ARC
  5
1684
330
1F
100
AcDbEntity
  8
SCREW
  6
HIDDEN
 48
0.2
100
AcDbCircle
 10
24.29564960085502
 20
21.7113299785738
 30
0.0
 40
0.0122271916842302
100
AcDbArc
 50
200.0434587331203
 51
26.06314271735279
  0
ARC
  5
1685
330
1F
100
AcDbEntity
  8
SCREW
  6
HIDDEN
 48
0.2
100
AcDbCircle
 10
24.22995892494823
 20
21.8656881132786
 30
0.0
 40
0.0122271916842302
100
AcDbArc
 50
20.0434587308118
 51
206.0631427159179
  0
LINE
  5
1686
330
1F
100
AcDbEntity
  8
SCREW
  6
HIDDEN
 48
0.2
100
AcDbLine
 10
24.30329482577836
 20
21.72454705746222
 30
0.0
 11
24.34759410745372
 21
21.72454705746221
 31
0.0
  0
LINE
  5
1687
330
1F
100
AcDbEntity
  8
SCREW
  6
HIDDEN
 48
0.2
100
AcDbLine
 10
24.77496427729862
 20
21.87169280072154
 30
0.0
 11
24.73654934309424
 21
21.87169280072154
 31
0.0
  0
LINE
  5
1688
330
1F
100
AcDbEntity
  8
SCREW
  6
HIDDEN
 48
0.2
100
AcDbLine
 10
24.28859473164913
 20
21.86492880376571
 30
0.0
 11
24.24355212535449
 21
21.86492880376571
 31
0.0
  0
LINE
  5
1689
330
1F
100
AcDbEntity
  8
SCREW
  6
HIDDEN
 48
0.2
100
AcDbLine
 10
21.66164862983251
 20
21.62835745669225
 30
0.0
 11
21.66164862983251
 21
21.83359206207412
 31
0.0
  0
LINE
  5
168A
330
1F
100
AcDbEntity
  8
SCREW
  6
HIDDEN
 48
0.2
100
AcDbLine
 10
21.66164862983251
 20
21.88287946498268
 30
0.0
 11
21.66164862983251
 21
21.9479013256472
 31
0.0
  0
LINE
  5
168B
330
1F
100
AcDbEntity
  8
SCREW
  6
HIDDEN
 48
0.2
100
AcDbLine
 10
22.07236939669052
 20
21.62835745669225
 30
0.0
 11
22.07236939669052
 21
21.84329880539968
 31
0.0
  0
LINE
  5
168C
330
1F
100
AcDbEntity
  8
SCREW
  6
HIDDEN
 48
0.2
100
AcDbLine
 10
22.07236939669052
 20
21.89258620830825
 30
0.0
 11
22.07236939669052
 21
21.94790132564721
 31
0.0
  0
LINE
  5
168D
330
1F
100
AcDbEntity
  8
SCREW
  6
HIDDEN
 48
0.2
100
AcDbLine
 10
22.07236939669052
 20
21.62835745669225
 30
0.0
 11
22.10224368082317
 21
21.62835745669225
 31
0.0
  0
ARC
  5
168E
330
1F
100
AcDbEntity
  8
SCREW
  6
HIDDEN
 48
0.2
100
AcDbCircle
 10
22.21076198175573
 20
21.78812939116972
 30
0.0
 40
0.2113754447605181
100
AcDbArc
 50
130.8987284875913
 51
146.47438807688
  0
ARC
  5
168F
330
1F
100
AcDbEntity
  8
SCREW
  6
HIDDEN
 48
0.2
100
AcDbCircle
 10
22.21076198175573
 20
21.78812939116972
 30
0.0
 40
0.2113754447605181
100
AcDbArc
 50
159.3688093918261
 51
229.1012715124085
  0
LINE
  5
1690
330
1F
100
AcDbEntity
  8
SCREW
  6
HIDDEN
 48
0.2
100
AcDbLine
 10
22.07236939669052
 20
21.9479013256472
 30
0.0
 11
22.10224368082317
 21
21.94790132564721
 31
0.0
  0
LINE
  5
1691
330
1F
100
AcDbEntity
  8
SCREW
  6
HIDDEN
 48
0.2
100
AcDbLine
 10
24.37747281326178
 20
21.71670213456725
 30
0.0
 11
24.31228495046679
 21
21.86987877291851
 31
0.0
  0
LINE
  5
1692
330
1F
100
AcDbEntity
  8
SCREW
  6
HIDDEN
 48
0.2
100
AcDbLine
 10
24.35550518649283
 20
21.70595782258036
 30
0.0
 11
24.28981451058596
 21
21.86031595728532
 31
0.0
  0
ARC
  5
1693
330
1F
100
AcDbEntity
  8
SCREW
  6
HIDDEN
 48
0.2
100
AcDbCircle
 10
24.3664889998773
 20
21.7113299785738
 30
0.0
 40
0.0122271916842302
100
AcDbArc
 50
200.0434587331203
 51
26.06314271735279
  0
ARC
  5
1694
330
1F
100
AcDbEntity
  8
SCREW
  6
HIDDEN
 48
0.2
100
AcDbCircle
 10
24.30079832397051
 20
21.86568811327861
 30
0.0
 40
0.0122271916842302
100
AcDbArc
 50
20.0434587308118
 51
206.0631427159178
  0
LINE
  5
1695
330
1F
100
AcDbEntity
  8
SCREW
  6
HIDDEN
 48
0.2
100
AcDbLine
 10
24.37413422480064
 20
21.72454705746222
 30
0.0
 11
24.418433506476
 21
21.72454705746222
 31
0.0
  0
LINE
  5
1696
330
1F
100
AcDbEntity
  8
SCREW
  6
HIDDEN
 48
0.2
100
AcDbLine
 10
24.35943413067141
 20
21.86492880376571
 30
0.0
 11
24.31439152437678
 21
21.86492880376572
 31
0.0
  0
LINE
  5
1697
330
1F
100
AcDbEntity
  8
SCREW
  6
HIDDEN
 48
0.2
100
AcDbLine
 10
24.44831221228407
 20
21.71670213456726
 30
0.0
 11
24.38312434948907
 21
21.86987877291851
 31
0.0
  0
LINE
  5
1698
330
1F
100
AcDbEntity
  8
SCREW
  6
HIDDEN
 48
0.2
100
AcDbLine
 10
24.42634458551511
 20
21.70595782258037
 30
0.0
 11
24.36065390960824
 21
21.86031595728533
 31
0.0
  0
ARC
  5
1699
330
1F
100
AcDbEntity
  8
SCREW
  6
HIDDEN
 48
0.2
100
AcDbCircle
 10
24.43732839889959
 20
21.71132997857381
 30
0.0
 40
0.0122271916842302
100
AcDbArc
 50
200.0434587331203
 51
26.06314271735279
  0
ARC
  5
169A
330
1F
100
AcDbEntity
  8
SCREW
  6
HIDDEN
 48
0.2
100
AcDbCircle
 10
24.37163772299279
 20
21.86568811327861
 30
0.0
 40
0.0122271916842302
100
AcDbArc
 50
20.0434587308118
 51
206.0631427159178
  0
LINE
  5
169B
330
1F
100
AcDbEntity
  8
SCREW
  6
HIDDEN
 48
0.2
100
AcDbLine
 10
24.44497362382293
 20
21.72454705746223
 30
0.0
 11
24.48927290549828
 21
21.72454705746222
 31
0.0
  0
LINE
  5
169C
330
1F
100
AcDbEntity
  8
SCREW
  6
HIDDEN
 48
0.2
100
AcDbLine
 10
24.43027352969369
 20
21.86492880376572
 30
0.0
 11
24.38523092339906
 21
21.86492880376572
 31
0.0
  0
LINE
  5
169D
330
1F
100
AcDbEntity
  8
SCREW
  6
HIDDEN
 48
0.2
100
AcDbLine
 10
24.51915161130635
 20
21.71670213456727
 30
0.0
 11
24.45396374851136
 21
21.86987877291852
 31
0.0
  0
LINE
  5
169E
330
1F
100
AcDbEntity
  8
SCREW
  6
HIDDEN
 48
0.2
100
AcDbLine
 10
24.4971839845374
 20
21.70595782258038
 30
0.0
 11
24.43149330863052
 21
21.86031595728533
 31
0.0
  0
ARC
  5
169F
330
1F
100
AcDbEntity
  8
SCREW
  6
HIDDEN
 48
0.2
100
AcDbCircle
 10
24.50816779792187
 20
21.71132997857382
 30
0.0
 40
0.0122271916842302
100
AcDbArc
 50
200.0434587331203
 51
26.06314271735279
  0
ARC
  5
16A0
330
1F
100
AcDbEntity
  8
SCREW
  6
HIDDEN
 48
0.2
100
AcDbCircle
 10
24.44247712201507
 20
21.86568811327862
 30
0.0
 40
0.0122271916842302
100
AcDbArc
 50
20.0434587308118
 51
206.0631427159178
  0
LINE
  5
16A1
330
1F
100
AcDbEntity
  8
SCREW
  6
HIDDEN
 48
0.2
100
AcDbLine
 10
24.51581302284521
 20
21.72454705746224
 30
0.0
 11
24.56011230452057
 21
21.72454705746223
 31
0.0
  0
LINE
  5
16A2
330
1F
100
AcDbEntity
  8
SCREW
  6
HIDDEN
 48
0.2
100
AcDbLine
 10
24.50111292871597
 20
21.86492880376572
 30
0.0
 11
24.45607032242134
 21
21.86492880376573
 31
0.0
  0
LINE
  5
16A3
330
1F
100
AcDbEntity
  8
SCREW
  6
HIDDEN
 48
0.2
100
AcDbLine
 10
24.58999101032863
 20
21.71670213456728
 30
0.0
 11
24.52480314753364
 21
21.86987877291853
 31
0.0
  0
LINE
  5
16A4
330
1F
100
AcDbEntity
  8
SCREW
  6
HIDDEN
 48
0.2
100
AcDbLine
 10
24.56802338355968
 20
21.70595782258038
 30
0.0
 11
24.5023327076528
 21
21.86031595728534
 31
0.0
  0
ARC
  5
16A5
330
1F
100
AcDbEntity
  8
SCREW
  6
HIDDEN
 48
0.2
100
AcDbCircle
 10
24.57900719694415
 20
21.71132997857383
 30
0.0
 40
0.0122271916842302
100
AcDbArc
 50
200.0434587331203
 51
26.06314271735279
  0
ARC
  5
16A6
330
1F
100
AcDbEntity
  8
SCREW
  6
HIDDEN
 48
0.2
100
AcDbCircle
 10
24.51331652103736
 20
21.86568811327862
 30
0.0
 40
0.0122271916842302
100
AcDbArc
 50
20.0434587308118
 51
206.0631427159178
  0
LINE
  5
16A7
330
1F
100
AcDbEntity
  8
SCREW
  6
HIDDEN
 48
0.2
100
AcDbLine
 10
24.58665242186749
 20
21.72454705746224
 30
0.0
 11
24.63095170354285
 21
21.72454705746224
 31
0.0
  0
LINE
  5
16A8
330
1F
100
AcDbEntity
  8
SCREW
  6
HIDDEN
 48
0.2
100
AcDbLine
 10
24.57195232773826
 20
21.86492880376573
 30
0.0
 11
24.52690972144362
 21
21.86492880376574
 31
0.0
  0
LINE
  5
16A9
330
1F
100
AcDbEntity
  8
SCREW
  6
HIDDEN
 48
0.2
100
AcDbLine
 10
24.65872383544092
 20
21.72165210372007
 30
0.0
 11
24.59353597264593
 21
21.87482874207133
 31
0.0
  0
LINE
  5
16AA
330
1F
100
AcDbEntity
  8
SCREW
  6
HIDDEN
 48
0.2
100
AcDbLine
 10
24.63675620867196
 20
21.71090779173318
 30
0.0
 11
24.57106553276509
 21
21.86526592643814
 31
0.0
  0
ARC
  5
16AB
330
1F
100
AcDbEntity
  8
SCREW
  6
HIDDEN
 48
0.2
100
AcDbCircle
 10
24.64774002205644
 20
21.71627994772662
 30
0.0
 40
0.0122271916842302
100
AcDbArc
 50
200.0434587331203
 51
26.06314271735279
  0
ARC
  5
16AC
330
1F
100
AcDbEntity
  8
SCREW
  6
HIDDEN
 48
0.2
100
AcDbCircle
 10
24.58204934614964
 20
21.87063808243142
 30
0.0
 40
0.0122271916842302
100
AcDbArc
 50
20.0434587308118
 51
206.0631427159178
  0
LINE
  5
16AD
330
1F
100
AcDbEntity
  8
SCREW
  6
HIDDEN
 48
0.2
100
AcDbLine
 10
24.65538524697978
 20
21.72949702661504
 30
0.0
 11
24.69968452865514
 21
21.72949702661503
 31
0.0
  0
LINE
  5
16AE
330
1F
100
AcDbEntity
  8
SCREW
  6
HIDDEN
 48
0.2
100
AcDbLine
 10
24.64068515285054
 20
21.86987877291853
 30
0.0
 11
24.59564254655591
 21
21.86987877291854
 31
0.0
  0
LINE
  5
16AF
330
1F
100
AcDbEntity
  8
SCREW
  6
HIDDEN
 48
0.2
100
AcDbLine
 10
24.7295632344632
 20
21.72165210372008
 30
0.0
 11
24.66437537166821
 21
21.87482874207133
 31
0.0
  0
LINE
  5
16B0
330
1F
100
AcDbEntity
  8
SCREW
  6
HIDDEN
 48
0.2
100
AcDbLine
 10
24.70759560769425
 20
21.71090779173319
 30
0.0
 11
24.64190493178737
 21
21.86526592643815
 31
0.0
  0
ARC
  5
16B1
330
1F
100
AcDbEntity
  8
SCREW
  6
HIDDEN
 48
0.2
100
AcDbCircle
 10
24.71857942107873
 20
21.71627994772663
 30
0.0
 40
0.0122271916842302
100
AcDbArc
 50
200.0434587331203
 51
26.06314271735279
  0
ARC
  5
16B2
330
1F
100
AcDbEntity
  8
SCREW
  6
HIDDEN
 48
0.2
100
AcDbCircle
 10
24.65288874517193
 20
21.87063808243143
 30
0.0
 40
0.0122271916842302
100
AcDbArc
 50
20.0434587308118
 51
206.0631427159178
  0
LINE
  5
16B3
330
1F
100
AcDbEntity
  8
SCREW
  6
HIDDEN
 48
0.2
100
AcDbLine
 10
24.72622464600206
 20
21.72949702661505
 30
0.0
 11
24.77052392767742
 21
21.72949702661504
 31
0.0
  0
LINE
  5
16B4
330
1F
100
AcDbEntity
  8
SCREW
  6
HIDDEN
 48
0.2
100
AcDbLine
 10
24.71152455187282
 20
21.86987877291854
 30
0.0
 11
24.66648194557819
 21
21.86987877291854
 31
0.0
  0
LINE
  5
16B5
330
1F
100
AcDbEntity
  8
SCREW
  6
HIDDEN
 48
0.2
100
AcDbLine
 10
24.80040263348548
 20
21.72165210372009
 30
0.0
 11
24.73521477069049
 21
21.87482874207134
 31
0.0
  0
LINE
  5
16B6
330
1F
100
AcDbEntity
  8
SCREW
  6
HIDDEN
 48
0.2
100
AcDbLine
 10
24.77843500671653
 20
21.7109077917332
 30
0.0
 11
24.71274433080965
 21
21.86526592643815
 31
0.0
  0
ARC
  5
16B7
330
1F
100
AcDbEntity
  8
SCREW
  6
HIDDEN
 48
0.2
100
AcDbCircle
 10
24.789418820101
 20
21.71627994772664
 30
0.0
 40
0.0122271916842302
100
AcDbArc
 50
200.0434587331203
 51
26.06314271735279
  0
ARC
  5
16B8
330
1F
100
AcDbEntity
  8
SCREW
  6
HIDDEN
 48
0.2
100
AcDbCircle
 10
24.72372814419421
 20
21.87063808243144
 30
0.0
 40
0.0122271916842302
100
AcDbArc
 50
20.0434587308118
 51
206.0631427159178
  0
LEADER
  5
16B9
330
1F
100
AcDbEntity
  8
LEADERS
100
AcDbLeader
  3
Standard
 76
     3
 10
21.99938653699522
 20
21.78812939116972
 30
0.0
 10
20.48872367589241
 20
21.27382073461051
 30
0.0
 10
19.65193571682476
 20
21.27382073461051
 30
0.0
1001
ACAD
1000
DSTYLE
1002
{
1070
   147
1040
0.09375
1070
    77
1070
     0
1070
    41
1040
0.1875
1070
    90
1070
     1
1002
}
  0
LWPOLYLINE
  5
16BA
330
1F
100
AcDbEntity
  8
A-DE-35
  6
Continuous
100
AcDbPolyline
 90
        6
 70
     0
 43
0.0
 10
21.11479687593543
 20
17.8541964841884
 10
22.95182198674887
 20
17.8541964841884
 10
22.98307198674887
 20
17.76833781483044
 10
23.04557198674887
 20
17.94005515354636
 10
23.07682198674887
 20
17.8541964841884
 10
25.32010608848576
 20
17.85427630223611
  0
LWPOLYLINE
  5
16BB
330
1F
100
AcDbEntity
  8
A-DE-35
  6
Continuous
100
AcDbPolyline
 90
        6
 70
     0
 43
0.0
 10
25.13651107436576
 20
17.64296211758087
 10
25.13651107436576
 20
21.25564827146171
 10
25.22236974372372
 20
21.28689827146171
 10
25.05065240500781
 20
21.34939827146171
 10
25.13651107436576
 20
21.38064827146171
 10
25.13637139278227
 20
25.13038562429693
  0
LWPOLYLINE
  5
16BC
330
1F
100
AcDbEntity
  8
A-DE-35
  6
Continuous
100
AcDbPolyline
 90
        6
 70
     0
 43
0.0
 10
21.10210802502351
 20
24.99651770577852
 10
22.95182198674887
 20
24.99651770577852
 10
22.98307198674887
 20
24.91065903642056
 10
23.04557198674887
 20
25.08237637513647
 10
23.07682198674887
 20
24.99651770577852
 10
25.28603513783624
 20
24.99659752382623
  0
LINE
  5
16BD
330
1F
100
AcDbEntity
  8
SCREW
  6
HIDDEN
 48
0.2
100
AcDbLine
 10
23.45804944391996
 20
21.71746144408015
 30
0.0
 11
23.39286158112497
 21
21.8706380824314
 31
0.0
  0
LINE
  5
16BE
330
1F
100
AcDbEntity
  8
SCREW
  6
HIDDEN
 48
0.2
100
AcDbLine
 10
23.43608181715101
 20
21.70671713209326
 30
0.0
 11
23.37039114124414
 21
21.86107526679821
 31
0.0
  0
LINE
  5
16BF
330
1F
100
AcDbEntity
  8
SCREW
  6
HIDDEN
 48
0.2
100
AcDbLine
 10
23.52888884294225
 20
21.71746144408015
 30
0.0
 11
23.46370098014725
 21
21.8706380824314
 31
0.0
  0
LINE
  5
16C0
330
1F
100
AcDbEntity
  8
SCREW
  6
HIDDEN
 48
0.2
100
AcDbLine
 10
23.50692121617329
 20
21.70671713209326
 30
0.0
 11
23.44123054026642
 21
21.86107526679821
 31
0.0
  0
LINE
  5
16C1
330
1F
100
AcDbEntity
  8
SCREW
  6
HIDDEN
 48
0.2
100
AcDbLine
 10
23.59972824196453
 20
21.71746144408015
 30
0.0
 11
23.53454037916954
 21
21.8706380824314
 31
0.0
  0
LINE
  5
16C2
330
1F
100
AcDbEntity
  8
SCREW
  6
HIDDEN
 48
0.2
100
AcDbLine
 10
23.57776061519558
 20
21.70671713209326
 30
0.0
 11
23.5120699392887
 21
21.86107526679821
 31
0.0
  0
LINE
  5
16C3
330
1F
100
AcDbEntity
  8
SCREW
  6
HIDDEN
 48
0.2
100
AcDbLine
 10
23.67056764098681
 20
21.71746144408015
 30
0.0
 11
23.60537977819182
 21
21.8706380824314
 31
0.0
  0
LINE
  5
16C4
330
1F
100
AcDbEntity
  8
SCREW
  6
HIDDEN
 48
0.2
100
AcDbLine
 10
23.64860001421786
 20
21.70671713209326
 30
0.0
 11
23.58290933831098
 21
21.86107526679821
 31
0.0
  0
LINE
  5
16C5
330
1F
100
AcDbEntity
  8
SCREW
  6
HIDDEN
 48
0.2
100
AcDbLine
 10
23.74140704000909
 20
21.71746144408015
 30
0.0
 11
23.6762191772141
 21
21.8706380824314
 31
0.0
  0
LINE
  5
16C6
330
1F
100
AcDbEntity
  8
SCREW
  6
HIDDEN
 48
0.2
100
AcDbLine
 10
23.71943941324014
 20
21.70671713209326
 30
0.0
 11
23.65374873733327
 21
21.86107526679821
 31
0.0
  0
LINE
  5
16C7
330
1F
100
AcDbEntity
  8
SCREW
  6
HIDDEN
 48
0.2
100
AcDbLine
 10
23.81224643903138
 20
21.71746144408015
 30
0.0
 11
23.74705857623638
 21
21.8706380824314
 31
0.0
  0
LINE
  5
16C8
330
1F
100
AcDbEntity
  8
SCREW
  6
HIDDEN
 48
0.2
100
AcDbLine
 10
23.79027881226242
 20
21.70671713209326
 30
0.0
 11
23.72458813635555
 21
21.86107526679821
 31
0.0
  0
LINE
  5
16C9
330
1F
100
AcDbEntity
  8
SCREW
  6
HIDDEN
 48
0.2
100
AcDbLine
 10
23.88308583805366
 20
21.71746144408015
 30
0.0
 11
23.81789797525867
 21
21.8706380824314
 31
0.0
  0
LINE
  5
16CA
330
1F
100
AcDbEntity
  8
SCREW
  6
HIDDEN
 48
0.2
100
AcDbLine
 10
23.86111821128471
 20
21.70671713209326
 30
0.0
 11
23.79542753537783
 21
21.86107526679821
 31
0.0
  0
LINE
  5
16CB
330
1F
100
AcDbEntity
  8
SCREW
  6
HIDDEN
 48
0.2
100
AcDbLine
 10
23.95392523707594
 20
21.71746144408015
 30
0.0
 11
23.88873737428095
 21
21.8706380824314
 31
0.0
  0
LINE
  5
16CC
330
1F
100
AcDbEntity
  8
SCREW
  6
HIDDEN
 48
0.2
100
AcDbLine
 10
23.93195761030699
 20
21.70671713209326
 30
0.0
 11
23.86626693440011
 21
21.86107526679821
 31
0.0
  0
LINE
  5
16CD
330
1F
100
AcDbEntity
  8
SCREW
  6
HIDDEN
 48
0.2
100
AcDbLine
 10
24.02476463609823
 20
21.71746144408015
 30
0.0
 11
23.95957677330323
 21
21.8706380824314
 31
0.0
  0
LINE
  5
16CE
330
1F
100
AcDbEntity
  8
SCREW
  6
HIDDEN
 48
0.2
100
AcDbLine
 10
24.00279700932927
 20
21.70671713209326
 30
0.0
 11
23.93710633342239
 21
21.86107526679821
 31
0.0
  0
LINE
  5
16CF
330
1F
100
AcDbEntity
  8
SCREW
  6
HIDDEN
 48
0.2
100
AcDbLine
 10
24.0956040351205
 20
21.71746144408015
 30
0.0
 11
24.03041617232551
 21
21.8706380824314
 31
0.0
  0
LINE
  5
16D0
330
1F
100
AcDbEntity
  8
SCREW
  6
HIDDEN
 48
0.2
100
AcDbLine
 10
24.07363640835155
 20
21.70671713209326
 30
0.0
 11
24.00794573244468
 21
21.86107526679821
 31
0.0
  0
LINE
  5
16D1
330
1F
100
AcDbEntity
  8
SCREW
  6
HIDDEN
 48
0.2
100
AcDbLine
 10
24.16644343414279
 20
21.71746144408015
 30
0.0
 11
24.10125557134779
 21
21.8706380824314
 31
0.0
  0
LINE
  5
16D2
330
1F
100
AcDbEntity
  8
SCREW
  6
HIDDEN
 48
0.2
100
AcDbLine
 10
24.14447580737383
 20
21.70671713209326
 30
0.0
 11
24.07878513146696
 21
21.86107526679821
 31
0.0
  0
ARC
  5
16D3
330
1F
100
AcDbEntity
  8
SCREW
  6
HIDDEN
 48
0.2
100
AcDbCircle
 10
23.44706563053549
 20
21.7120892880867
 30
0.0
 40
0.0122271916842302
100
AcDbArc
 50
200.0434587331203
 51
26.06314271735279
  0
ARC
  5
16D4
330
1F
100
AcDbEntity
  8
SCREW
  6
HIDDEN
 48
0.2
100
AcDbCircle
 10
23.38137495462869
 20
21.8664474227915
 30
0.0
 40
0.0122271916842302
100
AcDbArc
 50
20.0434587308118
 51
206.0631427159179
  0
LINE
  5
16D5
330
1F
100
AcDbEntity
  8
SCREW
  6
HIDDEN
 48
0.2
100
AcDbLine
 10
23.45471085545883
 20
21.72530636697512
 30
0.0
 11
23.49901013713418
 21
21.72530636697512
 31
0.0
  0
LINE
  5
16D6
330
1F
100
AcDbEntity
  8
SCREW
  6
HIDDEN
 48
0.2
100
AcDbLine
 10
23.44001076132959
 20
21.8656881132786
 30
0.0
 11
23.39496815503496
 21
21.86568811327861
 31
0.0
  0
ARC
  5
16D7
330
1F
100
AcDbEntity
  8
SCREW
  6
HIDDEN
 48
0.2
100
AcDbCircle
 10
23.51790502955777
 20
21.7120892880867
 30
0.0
 40
0.0122271916842302
100
AcDbArc
 50
200.0434587331203
 51
26.06314271735279
  0
ARC
  5
16D8
330
1F
100
AcDbEntity
  8
SCREW
  6
HIDDEN
 48
0.2
100
AcDbCircle
 10
23.45221435365097
 20
21.8664474227915
 30
0.0
 40
0.0122271916842302
100
AcDbArc
 50
20.0434587308118
 51
206.0631427159179
  0
LINE
  5
16D9
330
1F
100
AcDbEntity
  8
SCREW
  6
HIDDEN
 48
0.2
100
AcDbLine
 10
23.52555025448111
 20
21.72530636697512
 30
0.0
 11
23.56984953615647
 21
21.72530636697512
 31
0.0
  0
LINE
  5
16DA
330
1F
100
AcDbEntity
  8
SCREW
  6
HIDDEN
 48
0.2
100
AcDbLine
 10
23.51085016035187
 20
21.8656881132786
 30
0.0
 11
23.46580755405724
 21
21.86568811327861
 31
0.0
  0
ARC
  5
16DB
330
1F
100
AcDbEntity
  8
SCREW
  6
HIDDEN
 48
0.2
100
AcDbCircle
 10
23.58874442858005
 20
21.7120892880867
 30
0.0
 40
0.0122271916842302
100
AcDbArc
 50
200.0434587331203
 51
26.06314271735279
  0
ARC
  5
16DC
330
1F
100
AcDbEntity
  8
SCREW
  6
HIDDEN
 48
0.2
100
AcDbCircle
 10
23.52305375267325
 20
21.8664474227915
 30
0.0
 40
0.0122271916842302
100
AcDbArc
 50
20.0434587308118
 51
206.0631427159179
  0
LINE
  5
16DD
330
1F
100
AcDbEntity
  8
SCREW
  6
HIDDEN
 48
0.2
100
AcDbLine
 10
23.59638965350339
 20
21.72530636697512
 30
0.0
 11
23.64068893517875
 21
21.72530636697512
 31
0.0
  0
LINE
  5
16DE
330
1F
100
AcDbEntity
  8
SCREW
  6
HIDDEN
 48
0.2
100
AcDbLine
 10
23.58168955937415
 20
21.8656881132786
 30
0.0
 11
23.53664695307953
 21
21.86568811327861
 31
0.0
  0
ARC
  5
16DF
330
1F
100
AcDbEntity
  8
SCREW
  6
HIDDEN
 48
0.2
100
AcDbCircle
 10
23.65958382760233
 20
21.7120892880867
 30
0.0
 40
0.0122271916842302
100
AcDbArc
 50
200.0434587331203
 51
26.06314271735279
  0
ARC
  5
16E0
330
1F
100
AcDbEntity
  8
SCREW
  6
HIDDEN
 48
0.2
100
AcDbCircle
 10
23.59389315169554
 20
21.8664474227915
 30
0.0
 40
0.0122271916842302
100
AcDbArc
 50
20.0434587308118
 51
206.0631427159179
  0
LINE
  5
16E1
330
1F
100
AcDbEntity
  8
SCREW
  6
HIDDEN
 48
0.2
100
AcDbLine
 10
23.66722905252567
 20
21.72530636697512
 30
0.0
 11
23.71152833420103
 21
21.72530636697512
 31
0.0
  0
LINE
  5
16E2
330
1F
100
AcDbEntity
  8
SCREW
  6
HIDDEN
 48
0.2
100
AcDbLine
 10
23.65252895839644
 20
21.8656881132786
 30
0.0
 11
23.6074863521018
 21
21.86568811327861
 31
0.0
  0
ARC
  5
16E3
330
1F
100
AcDbEntity
  8
SCREW
  6
HIDDEN
 48
0.2
100
AcDbCircle
 10
23.73042322662461
 20
21.7120892880867
 30
0.0
 40
0.0122271916842302
100
AcDbArc
 50
200.0434587331203
 51
26.06314271735279
  0
ARC
  5
16E4
330
1F
100
AcDbEntity
  8
SCREW
  6
HIDDEN
 48
0.2
100
AcDbCircle
 10
23.66473255071782
 20
21.8664474227915
 30
0.0
 40
0.0122271916842302
100
AcDbArc
 50
20.0434587308118
 51
206.0631427159179
  0
LINE
  5
16E5
330
1F
100
AcDbEntity
  8
SCREW
  6
HIDDEN
 48
0.2
100
AcDbLine
 10
23.73806845154796
 20
21.72530636697512
 30
0.0
 11
23.78236773322331
 21
21.72530636697512
 31
0.0
  0
LINE
  5
16E6
330
1F
100
AcDbEntity
  8
SCREW
  6
HIDDEN
 48
0.2
100
AcDbLine
 10
23.72336835741872
 20
21.8656881132786
 30
0.0
 11
23.67832575112409
 21
21.86568811327861
 31
0.0
  0
ARC
  5
16E7
330
1F
100
AcDbEntity
  8
SCREW
  6
HIDDEN
 48
0.2
100
AcDbCircle
 10
23.8012626256469
 20
21.7120892880867
 30
0.0
 40
0.0122271916842302
100
AcDbArc
 50
200.0434587331203
 51
26.06314271735279
  0
ARC
  5
16E8
330
1F
100
AcDbEntity
  8
SCREW
  6
HIDDEN
 48
0.2
100
AcDbCircle
 10
23.7355719497401
 20
21.8664474227915
 30
0.0
 40
0.0122271916842302
100
AcDbArc
 50
20.0434587308118
 51
206.0631427159179
  0
LINE
  5
16E9
330
1F
100
AcDbEntity
  8
SCREW
  6
HIDDEN
 48
0.2
100
AcDbLine
 10
23.80890785057024
 20
21.72530636697512
 30
0.0
 11
23.85320713224559
 21
21.72530636697512
 31
0.0
  0
LINE
  5
16EA
330
1F
100
AcDbEntity
  8
SCREW
  6
HIDDEN
 48
0.2
100
AcDbLine
 10
23.794207756441
 20
21.8656881132786
 30
0.0
 11
23.74916515014637
 21
21.86568811327861
 31
0.0
  0
ARC
  5
16EB
330
1F
100
AcDbEntity
  8
SCREW
  6
HIDDEN
 48
0.2
100
AcDbCircle
 10
23.87210202466918
 20
21.7120892880867
 30
0.0
 40
0.0122271916842302
100
AcDbArc
 50
200.0434587331203
 51
26.06314271735279
  0
ARC
  5
16EC
330
1F
100
AcDbEntity
  8
SCREW
  6
HIDDEN
 48
0.2
100
AcDbCircle
 10
23.80641134876238
 20
21.8664474227915
 30
0.0
 40
0.0122271916842302
100
AcDbArc
 50
20.0434587308118
 51
206.0631427159179
  0
LINE
  5
16ED
330
1F
100
AcDbEntity
  8
SCREW
  6
HIDDEN
 48
0.2
100
AcDbLine
 10
23.87974724959252
 20
21.72530636697512
 30
0.0
 11
23.92404653126788
 21
21.72530636697512
 31
0.0
  0
LINE
  5
16EE
330
1F
100
AcDbEntity
  8
SCREW
  6
HIDDEN
 48
0.2
100
AcDbLine
 10
23.86504715546328
 20
21.8656881132786
 30
0.0
 11
23.82000454916865
 21
21.86568811327861
 31
0.0
  0
ARC
  5
16EF
330
1F
100
AcDbEntity
  8
SCREW
  6
HIDDEN
 48
0.2
100
AcDbCircle
 10
23.94294142369146
 20
21.7120892880867
 30
0.0
 40
0.0122271916842302
100
AcDbArc
 50
200.0434587331203
 51
26.06314271735279
  0
ARC
  5
16F0
330
1F
100
AcDbEntity
  8
SCREW
  6
HIDDEN
 48
0.2
100
AcDbCircle
 10
23.87725074778467
 20
21.8664474227915
 30
0.0
 40
0.0122271916842302
100
AcDbArc
 50
20.0434587308118
 51
206.0631427159179
  0
LINE
  5
16F1
330
1F
100
AcDbEntity
  8
SCREW
  6
HIDDEN
 48
0.2
100
AcDbLine
 10
23.9505866486148
 20
21.72530636697512
 30
0.0
 11
23.99488593029016
 21
21.72530636697512
 31
0.0
  0
LINE
  5
16F2
330
1F
100
AcDbEntity
  8
SCREW
  6
HIDDEN
 48
0.2
100
AcDbLine
 10
23.93588655448557
 20
21.8656881132786
 30
0.0
 11
23.89084394819093
 21
21.86568811327861
 31
0.0
  0
ARC
  5
16F3
330
1F
100
AcDbEntity
  8
SCREW
  6
HIDDEN
 48
0.2
100
AcDbCircle
 10
24.01378082271375
 20
21.7120892880867
 30
0.0
 40
0.0122271916842302
100
AcDbArc
 50
200.0434587331203
 51
26.06314271735279
  0
ARC
  5
16F4
330
1F
100
AcDbEntity
  8
SCREW
  6
HIDDEN
 48
0.2
100
AcDbCircle
 10
23.94809014680695
 20
21.8664474227915
 30
0.0
 40
0.0122271916842302
100
AcDbArc
 50
20.0434587308118
 51
206.0631427159179
  0
LINE
  5
16F5
330
1F
100
AcDbEntity
  8
SCREW
  6
HIDDEN
 48
0.2
100
AcDbLine
 10
24.02142604763709
 20
21.72530636697512
 30
0.0
 11
24.06572532931244
 21
21.72530636697512
 31
0.0
  0
LINE
  5
16F6
330
1F
100
AcDbEntity
  8
SCREW
  6
HIDDEN
 48
0.2
100
AcDbLine
 10
24.00672595350785
 20
21.8656881132786
 30
0.0
 11
23.96168334721322
 21
21.86568811327861
 31
0.0
  0
ARC
  5
16F7
330
1F
100
AcDbEntity
  8
SCREW
  6
HIDDEN
 48
0.2
100
AcDbCircle
 10
24.08462022173603
 20
21.7120892880867
 30
0.0
 40
0.0122271916842302
100
AcDbArc
 50
200.0434587331203
 51
26.06314271735279
  0
ARC
  5
16F8
330
1F
100
AcDbEntity
  8
SCREW
  6
HIDDEN
 48
0.2
100
AcDbCircle
 10
24.01892954582923
 20
21.8664474227915
 30
0.0
 40
0.0122271916842302
100
AcDbArc
 50
20.0434587308118
 51
206.0631427159179
  0
LINE
  5
16F9
330
1F
100
AcDbEntity
  8
SCREW
  6
HIDDEN
 48
0.2
100
AcDbLine
 10
24.09226544665937
 20
21.72530636697512
 30
0.0
 11
24.13656472833472
 21
21.72530636697512
 31
0.0
  0
LINE
  5
16FA
330
1F
100
AcDbEntity
  8
SCREW
  6
HIDDEN
 48
0.2
100
AcDbLine
 10
24.07756535253013
 20
21.8656881132786
 30
0.0
 11
24.0325227462355
 21
21.86568811327861
 31
0.0
  0
ARC
  5
16FB
330
1F
100
AcDbEntity
  8
SCREW
  6
HIDDEN
 48
0.2
100
AcDbCircle
 10
24.08976894485152
 20
21.8664474227915
 30
0.0
 40
0.0122271916842302
100
AcDbArc
 50
20.0434587308118
 51
206.0631427159179
  0
LINE
  5
16FC
330
1F
100
AcDbEntity
  8
SCREW
  6
HIDDEN
 48
0.2
100
AcDbLine
 10
24.14840475155241
 20
21.8656881132786
 30
0.0
 11
24.10336214525778
 21
21.86568811327861
 31
0.0
  0
LINE
  5
16FD
330
1F
100
AcDbEntity
  8
SCREW
  6
HIDDEN
 48
0.2
100
AcDbLine
 10
23.17469184783083
 20
21.71746144408015
 30
0.0
 11
23.10950398503584
 21
21.8706380824314
 31
0.0
  0
LINE
  5
16FE
330
1F
100
AcDbEntity
  8
SCREW
  6
HIDDEN
 48
0.2
100
AcDbLine
 10
23.15272422106188
 20
21.70671713209326
 30
0.0
 11
23.08703354515501
 21
21.86107526679821
 31
0.0
  0
LINE
  5
16FF
330
1F
100
AcDbEntity
  8
SCREW
  6
HIDDEN
 48
0.2
100
AcDbLine
 10
23.24553124685312
 20
21.71746144408015
 30
0.0
 11
23.18034338405813
 21
21.8706380824314
 31
0.0
  0
LINE
  5
1700
330
1F
100
AcDbEntity
  8
SCREW
  6
HIDDEN
 48
0.2
100
AcDbLine
 10
23.22356362008417
 20
21.70671713209326
 30
0.0
 11
23.15787294417729
 21
21.86107526679821
 31
0.0
  0
LINE
  5
1701
330
1F
100
AcDbEntity
  8
SCREW
  6
HIDDEN
 48
0.2
100
AcDbLine
 10
23.3163706458754
 20
21.71746144408015
 30
0.0
 11
23.25118278308041
 21
21.8706380824314
 31
0.0
  0
LINE
  5
1702
330
1F
100
AcDbEntity
  8
SCREW
  6
HIDDEN
 48
0.2
100
AcDbLine
 10
23.29440301910645
 20
21.70671713209326
 30
0.0
 11
23.22871234319957
 21
21.86107526679821
 31
0.0
  0
LINE
  5
1703
330
1F
100
AcDbEntity
  8
SCREW
  6
HIDDEN
 48
0.2
100
AcDbLine
 10
23.38721004489768
 20
21.71746144408015
 30
0.0
 11
23.32202218210269
 21
21.8706380824314
 31
0.0
  0
LINE
  5
1704
330
1F
100
AcDbEntity
  8
SCREW
  6
HIDDEN
 48
0.2
100
AcDbLine
 10
23.36524241812873
 20
21.70671713209326
 30
0.0
 11
23.29955174222186
 21
21.86107526679821
 31
0.0
  0
ARC
  5
1705
330
1F
100
AcDbEntity
  8
SCREW
  6
HIDDEN
 48
0.2
100
AcDbCircle
 10
23.16370803444636
 20
21.7120892880867
 30
0.0
 40
0.0122271916842302
100
AcDbArc
 50
200.0434587331203
 51
26.06314271735279
  0
ARC
  5
1706
330
1F
100
AcDbEntity
  8
SCREW
  6
HIDDEN
 48
0.2
100
AcDbCircle
 10
23.09801735853956
 20
21.8664474227915
 30
0.0
 40
0.0122271916842302
100
AcDbArc
 50
20.0434587308118
 51
206.0631427159178
  0
LINE
  5
1707
330
1F
100
AcDbEntity
  8
SCREW
  6
HIDDEN
 48
0.2
100
AcDbLine
 10
23.1713532593697
 20
21.72530636697512
 30
0.0
 11
23.21565254104505
 21
21.72530636697512
 31
0.0
  0
LINE
  5
1708
330
1F
100
AcDbEntity
  8
SCREW
  6
HIDDEN
 48
0.2
100
AcDbLine
 10
23.15665316524046
 20
21.8656881132786
 30
0.0
 11
23.11161055894583
 21
21.86568811327861
 31
0.0
  0
ARC
  5
1709
330
1F
100
AcDbEntity
  8
SCREW
  6
HIDDEN
 48
0.2
100
AcDbCircle
 10
23.23454743346864
 20
21.7120892880867
 30
0.0
 40
0.0122271916842302
100
AcDbArc
 50
200.0434587331203
 51
26.06314271735279
  0
ARC
  5
170A
330
1F
100
AcDbEntity
  8
SCREW
  6
HIDDEN
 48
0.2
100
AcDbCircle
 10
23.16885675756184
 20
21.8664474227915
 30
0.0
 40
0.0122271916842302
100
AcDbArc
 50
20.0434587308118
 51
206.0631427159178
  0
LINE
  5
170B
330
1F
100
AcDbEntity
  8
SCREW
  6
HIDDEN
 48
0.2
100
AcDbLine
 10
23.24219265839198
 20
21.72530636697512
 30
0.0
 11
23.28649194006734
 21
21.72530636697512
 31
0.0
  0
LINE
  5
170C
330
1F
100
AcDbEntity
  8
SCREW
  6
HIDDEN
 48
0.2
100
AcDbLine
 10
23.22749256426274
 20
21.8656881132786
 30
0.0
 11
23.18244995796811
 21
21.86568811327861
 31
0.0
  0
ARC
  5
170D
330
1F
100
AcDbEntity
  8
SCREW
  6
HIDDEN
 48
0.2
100
AcDbCircle
 10
23.30538683249093
 20
21.7120892880867
 30
0.0
 40
0.0122271916842302
100
AcDbArc
 50
200.0434587331203
 51
26.06314271735279
  0
ARC
  5
170E
330
1F
100
AcDbEntity
  8
SCREW
  6
HIDDEN
 48
0.2
100
AcDbCircle
 10
23.23969615658413
 20
21.8664474227915
 30
0.0
 40
0.0122271916842302
100
AcDbArc
 50
20.0434587308118
 51
206.0631427159178
  0
LINE
  5
170F
330
1F
100
AcDbEntity
  8
SCREW
  6
HIDDEN
 48
0.2
100
AcDbLine
 10
23.31303205741426
 20
21.72530636697512
 30
0.0
 11
23.35733133908962
 21
21.72530636697512
 31
0.0
  0
LINE
  5
1710
330
1F
100
AcDbEntity
  8
SCREW
  6
HIDDEN
 48
0.2
100
AcDbLine
 10
23.29833196328502
 20
21.8656881132786
 30
0.0
 11
23.25328935699039
 21
21.86568811327861
 31
0.0
  0
ARC
  5
1711
330
1F
100
AcDbEntity
  8
SCREW
  6
HIDDEN
 48
0.2
100
AcDbCircle
 10
23.3762262315132
 20
21.7120892880867
 30
0.0
 40
0.0122271916842302
100
AcDbArc
 50
200.0434587331203
 51
26.06314271735279
  0
ARC
  5
1712
330
1F
100
AcDbEntity
  8
SCREW
  6
HIDDEN
 48
0.2
100
AcDbCircle
 10
23.31053555560641
 20
21.8664474227915
 30
0.0
 40
0.0122271916842302
100
AcDbArc
 50
20.0434587308118
 51
206.0631427159178
  0
LINE
  5
1713
330
1F
100
AcDbEntity
  8
SCREW
  6
HIDDEN
 48
0.2
100
AcDbLine
 10
23.38387145643654
 20
21.72530636697512
 30
0.0
 11
23.4281707381119
 21
21.72530636697512
 31
0.0
  0
LINE
  5
1714
330
1F
100
AcDbEntity
  8
SCREW
  6
HIDDEN
 48
0.2
100
AcDbLine
 10
23.36917136230731
 20
21.8656881132786
 30
0.0
 11
23.32412875601268
 21
21.86568811327861
 31
0.0
  0
LINE
  5
1715
330
1F
100
AcDbEntity
  8
SCREW
  6
HIDDEN
 48
0.2
100
AcDbLine
 10
24.79611291884135
 20
21.73129750568901
 30
0.0
 11
24.79932576049
 21
21.73131105441807
 31
0.0
  0
TEXT
  5
19CA
330
1F
100
AcDbEntity
  8
NOTES
100
AcDbText
 10
21.93735678637415
 20
18.9159947154032
 30
0.0
 40
0.0938
  1
AIRFLOW / DRAINAGE CHAMBER
 50
90.0
  7
DETAILS
100
AcDbText
  0
LINE
  5
1A6F
330
1F
100
AcDbEntity
  8
SCREW
  6
HIDDEN
 48
0.2
100
AcDbLine
 10
22.11069705818494
 20
21.71552063821378
 30
0.0
 11
22.10224442991851
 21
21.73538239050281
 31
0.0
  0
ARC
  5
1A7D
330
1F
100
AcDbEntity
  8
SCREW
  6
HIDDEN
 48
0.2
100
AcDbCircle
 10
22.09921043168868
 20
21.7113299785738
 30
0.0
 40
0.0122271916842302
100
AcDbArc
 50
284.3696639637795
 51
26.06314271735279
  0
DIMENSION
  5
1FAF
102
{ACAD_XDICTIONARY
360
1FBE
102
}
102
{ACAD_REACTORS
330
1FC9
102
}
330
1F
100
AcDbEntity
  8
DIMENSIONS
100
AcDbDimension
280
     0
  2
*D5
 10
22.10229954922801
 20
17.66183727275917
 30
0.0
 11
21.882008821255
 21
17.66183727275917
 31
0.0
 70
    32
  1
3/8"
 71
     5
 42
0.4405814559460098
 73
     0
 74
     0
 75
     0
  3
AM_ANSI
100
AcDbAlignedDimension
 13
21.661718093282
 23
17.8541964841884
 33
0.0
 14
22.10229954922801
 24
17.8541964841884
 34
0.0
100
AcDbRotatedDimension
1001
ACAD
1000
DSTYLE
1002
{
1070
   178
1070
   256
1002
}
  0
VIEWPORT
  5
290
102
{ACAD_XDICTIONARY
360
291
102
}
330
58
100
AcDbEntity
 67
     1
  8
0
100
AcDbViewport
 10
4.059074170077522
 20
5.313786209262461
 30
0.0
 40
21.35884691959964
 41
10.05866041692663
 68
     1
 69
     1
 12
4.059074170077522
 22
5.313786209262461
 13
0.0
 23
0.0
 14
0.5
 24
0.5
 15
0.5
 25
0.5
 16
0.0
 26
0.0
 36
1.0
 17
0.0
 27
0.0
 37
0.0
 42
50.0
 43
0.0
 44
0.0
 45
10.05866041692663
 50
0.0
 51
0.0
 72
  1000
 90
   819232
  1

281
     0
 71
     1
 74
     0
110
0.0
120
0.0
130
0.0
111
1.0
121
0.0
131
0.0
112
0.0
122
1.0
132
0.0
 79
     0
146
0.0
170
     0
 61
     5
348
9F
292
     1
282
     1
141
0.0
142
0.0
 63
   250
421
  3355443
  0
MTEXT
  5
412
330
58
100
AcDbEntity
 67
     1
  8
0
100
AcDbMText
 10
1.454878486923803
 20
0.4350098133260048
 30
0.0
 40
0.0781
 41
6.816532178661475
 46
0.0
 71
     1
 72
     5
  1
GLEN-GERY 423 S. POTTSVILLE PIKE SHOEMAKERSVILLE, PA 19555 800-854-4780, 610-562-3418 WWW.GLENGERY.COM
 73
     1
 44
1.0
101
Embedded Object
 70
     1
 10
1.0
 20
0.0
 30
0.0
 11
1.454878486923803
 21
0.4350098133260048
 31
0.0
 40
6.816532178661475
 41
0.0
 42
6.292483969986357
 43
0.0949346521145976
 71
     2
 72
     1
 44
6.816532178661475
 45
1.0
 73
     0
 74
     0
 46
0.0
  0
LINE
  5
41F
330
58
100
AcDbEntity
 67
     1
  8
title block
100
AcDbLine
 10
0.3093712765375702
 20
1.039359969887585
 30
0.0
 11
7.808747164444637
 21
1.039359969887585
 31
0.0
  0
LINE
  5
420
330
58
100
AcDbEntity
 67
     1
  8
title block
100
AcDbLine
 10
7.808747164444637
 20
1.101859969887585
 30
0.0
 11
0.3093692292309651
 21
1.101859969887587
 31
0.0
  0
TEXT
  5
59C
330
58
100
AcDbEntity
 67
     1
  8
scale
 62
     0
100
AcDbText
 10
0.3420461485385483
 20
0.348480956890576
 30
0.0
 40
0.0781
  1
SCALE : 
  7
DETAILS
100
AcDbText
1001
ACDBBLOCKREPETAG
1070
     1
1071
       17
1005
0
  0
TEXT
  5
5A6
330
58
100
AcDbEntity
 67
     1
  8
TITLE
100
AcDbText
 10
7.13723394722248
 20
1.150765642644953
 30
0.0
 40
0.165
  1
ELITE
  7
DETAILS
100
AcDbText
  0
TEXT
  5
5B8
330
58
100
AcDbEntity
 67
     1
  8
NOTES
100
AcDbText
 10
0.3856929828956623
 20
0.8428754443990484
 30
0.0
 40
0.09375
  1
NOTE: FASTENER PENETRATION - WOOD STUD- 1 1/4" MIN., STEEL STUD - 3 THREADS MIN., CONCRETE - 1" MIN.
  7
DETAILS
100
AcDbText
  0
TEXT
  5
5CF
330
58
100
AcDbEntity
 67
     1
  8
TITLE
100
AcDbText
 10
0.4104990075006825
 20
1.172610078203875
 30
0.0
 40
0.165
  1
TYPICAL WALL SECTION  WITH RIGID INSULATION
  7
DETAILS
100
AcDbText
  0
VIEWPORT
  5
9A0
102
{ACAD_XDICTIONARY
360
9A1
102
}
330
58
100
AcDbEntity
 67
     1
  8
viewports
100
AcDbViewport
 10
4.059102840112799
 20
5.992626912785659
 30
0.0
 40
7.499407032406322
 41
8.630907639953804
 68
     2
 69
     2
 12
21.79588959061705
 22
21.8231491319592
 13
0.0
 23
0.0
 14
0.5
 24
0.5
 15
0.5
 25
0.5
 16
0.0
 26
0.0
 36
1.0
 17
0.0
 27
0.0
 37
0.0
 42
50.0
 43
0.0
 44
0.0
 45
8.63090762955578
 50
0.0
 51
0.0
 72
  1000
 90
   819296
  1

281
     0
 71
     1
 74
     0
110
0.0
120
0.0
130
0.0
111
1.0
121
0.0
131
0.0
112
0.0
122
1.0
132
0.0
 79
     0
146
0.0
170
     0
 61
     5
348
9F
292
     1
282
     1
141
0.0
142
0.0
 63
   250
421
  3355443
1001
GENIUS_GENODEF_13
1002
{
1000
HIER
1070
     0
1002
}
1002
{
1000
MANEDIT
1070
     0
1002
}
1002
{
1000
NOSEL
1070
     0
1002
}
1002
{
1000
BEHIND
1070
     0
1002
}
1002
{
1000
OTHER
1070
     0
1002
}
1002
{
1000
REACTOR
1002
}
1001
GENIUS_GENOBJ-N-SDF_13
1002
{
1000
OWNER
1000
GEN
1002
}
1001
GENIUS_GENSCREG_15
1000
PF
1040
1.0
1000
DF
1040
1.0
1000
MIN
1011
0.3093993239096386
1021
1.677173092808757
1031
0.0
1000
MAX
1011
7.808806356315961
1021
10.30808073276256
1031
0.0
1000
FLAGS
1070
     4
  0
LINE
  5
A35
330
58
100
AcDbEntity
 67
     1
  8
0
100
AcDbLine
 10
0.3093988565626911
 20
0.4533015212193235
 30
0.0
 11
7.808774086590014
 21
0.4533015212193235
 31
0.0
  0
MTEXT
  5
E3B
102
{ACAD_XDICTIONARY
360
E3C
102
}
330
58
100
AcDbEntity
 67
     1
  8
scale
100
AcDbMText
 10
0.7915178468915798
 20
0.4210250013182808
 30
0.0
 40
0.0781
 41
0.6021203030946581
 46
0.0
 71
     1
 72
     5
  1
1:1
 73
     1
 44
1.0
101
Embedded Object
 70
     1
 10
1.0
 20
0.0
 30
0.0
 11
0.7915178468915798
 21
0.4210250013182808
 31
0.0
 40
0.6021203030946581
 41
0.0
 42
0.1197604365620737
 43
0.0784196452933152
 71
     2
 72
     1
 44
0.6021203030946581
 45
1.0
 73
     0
 74
     0
 46
0.0
  0
TEXT
  5
1A10
330
58
100
AcDbEntity
 67
     1
  8
NOTES
100
AcDbText
 10
0.8199304698709577
 20
0.5826327906973781
 30
0.0
 40
0.09375
  1
(MUST MEET ASTM C578 OR ASTM C1289, MIN. 15 PSI COMPRESSIVE STRENGTH)
  7
DETAILS
100
AcDbText
  0
TEXT
  5
1AB1
330
58
100
AcDbEntity
 67
     1
  8
NOTES
100
AcDbText
 10
0.8112417892354423
 20
0.7127153469155659
 30
0.0
 40
0.09375
  1
CALL FOR INSULATION WIDER THAN 2" RIGID INSULATION 
  7
DETAILS
100
AcDbText
  0
IMAGE
  5
20B7
330
58
100
AcDbEntity
 67
     1
  8
logos
160
               140
310
8C000000010000008400000006000000050000008F2B66D232CDD33FE41FA719A3F722400000000000000000902B66D232CDD33F607CFFC1BC9D244000000000000000008E338075A9390740607CFFC1BC9D244000000000000000008E338075A9390740E41FA719A3F7224000000000000000008F2B66D232CDD33FE41FA7
310
19A3F722400000000000000000
100
AcDbRasterImage
 90
        0
 10
0.3093993239096386
 20
9.483666230822514
 30
0.0
 11
0.0013694593055483
 21
0.0
 31
0.0
 12
0.0
 22
0.0013694593055483
 32
0.0
 13
1894.0
 23
602.0
340
20B5
 70
     7
280
     0
281
    50
282
    50
283
     0
290
     0
360
20B6
 71
     1
 91
        2
 14
-0.5
 24
-0.5
 14
1893.5
 24
601.5
  0
ENDSEC
  0
SECTION
  2
OBJECTS
  0
DICTIONARY
  5
C
330
0
100
AcDbDictionary
281
     1
  3
ACAD_BGPLOT_KEY
350
A93
  3
ACAD_CIP_PREVIOUS_PRODUCT_INFO
350
1A5
  3
ACAD_COLOR
350
73
  3
ACAD_DETAILVIEWSTYLE
350
1AB
  3
ACAD_FIELDLIST
350
278
  3
ACAD_GROUP
350
D
  3
ACAD_IMAGE_DICT
350
5A7
  3
ACAD_IMAGE_VARS
350
5A8
  3
ACAD_LAYOUT
350
1A
  3
ACAD_MATERIAL
350
72
  3
ACAD_MLEADERSTYLE
350
D7
  3
ACAD_MLINESTYLE
350
17
  3
ACAD_PLOTSETTINGS
350
19
  3
ACAD_PLOTSTYLENAME
350
E
  3
ACAD_RENDER_RAPIDRT_SETTINGS
350
9A3
  3
ACAD_SCALELIST
350
B6
  3
ACAD_SECTIONVIEWSTYLE
350
1A8
  3
ACAD_TABLESTYLE
350
86
  3
ACAD_VISUALSTYLE
350
99
  3
ACDB_RECOMPOSE_DATA
350
20DF
  3
AcDbVariableDictionary
350
66
  3
ACGREF_MASTER
350
21E
  3
ACGREFACAD_MASTER
350
222
  3
AcmDictionary
350
23A
  3
ACME_COMMAND_HISTORY
350
216
  3
ACME_SCOPE_NAME
350
215
  3
ACMESTATEMGR
350
219
  3
AcmeSysVarManager
350
217
  3
AcmSystemVariableManager
350
227
  3
AMG
350
20E
  3
AMGSNAPSETTINGS
350
406
  3
AMI_MASTER
350
223
  3
AUTOCAD_ASSEMBLIES_PROJECT
350
230
  3
Designer_Assemblies_SysVars
350
22A
  3
GREFAM_MODULE
350
226
  3
StructToggleButtonState
350
3DA
  0
DICTIONARY
  5
18E
330
2
100
AcDbDictionary
280
     1
281
     1
  3
ACAD_LAYERSTATES
360
18F
  0
DICTIONARY
  5
E6
330
10
100
AcDbDictionary
280
     1
281
     1
  0
DICTIONARY
  5
15D
330
1F
100
AcDbDictionary
280
     1
281
     1
  3
ACAD_SORTENTS
360
973
  0
DICTIONARY
  5
AB7
330
58
100
AcDbDictionary
280
     1
281
     1
  3
ACAD_SORTENTS
360
AB8
  0
DICTIONARY
  5
121C
330
121B
100
AcDbDictionary
280
     1
281
     1
  0
DICTIONARY
  5
1FBE
330
1FAF
100
AcDbDictionary
280
     1
281
     1
  3
ACAD_DIMASSOC
360
1FC9
  0
DICTIONARY
  5
291
330
290
100
AcDbDictionary
280
     1
281
     1
  3
ASDK_XREC_ANNOTATION_SCALE_INFO
360
292
  0
DICTIONARY
  5
9A1
330
9A0
100
AcDbDictionary
280
     1
281
     1
  3
ASDK_XREC_ANNOTATION_SCALE_INFO
360
9A2
  0
DICTIONARY
  5
E3C
330
E3B
100
AcDbDictionary
280
     1
281
     1
  3
ACAD_FIELD
360
E3D
  0
IMAGEDEF_REACTOR
  5
20B6
330
20B7
100
AcDbRasterImageDefReactor
 90
        2
330
20B7
  0
DICTIONARY
  5
A93
102
{ACAD_REACTORS
330
C
102
}
330
C
100
AcDbDictionary
280
     1
281
     1
  0
XRECORD
  5
1A5
102
{ACAD_REACTORS
330
C
102
}
330
C
100
AcDbXrecord
280
     1
300
ACD
300
2020
300

  0
DICTIONARY
  5
73
102
{ACAD_REACTORS
330
C
102
}
330
C
100
AcDbDictionary
281
     1
  0
DICTIONARY
  5
1AB
102
{ACAD_REACTORS
330
C
102
}
330
C
100
AcDbDictionary
281
     1
  3
ASME Y14.35 - 1987
350
26D
  3
Imperial24
350
1AC
  0
FIELDLIST
  5
278
102
{ACAD_REACTORS
330
C
102
}
330
C
100
AcDbIdSet
 90
        6
330
276
330
277
330
279
330
27A
330
E3E
330
E74
100
AcDbFieldList
  0
DICTIONARY
  5
D
102
{ACAD_REACTORS
330
C
102
}
330
C
100
AcDbDictionary
281
     1
  0
DICTIONARY
  5
5A7
102
{ACAD_REACTORS
330
C
102
}
330
C
100
AcDbDictionary
281
     1
  3
GG_logo_Horiz_K
350
20B5
  0
RASTERVARIABLES
  5
5A8
102
{ACAD_REACTORS
330
C
102
}
330
C
100
AcDbRasterVariables
 90
        0
 70
     0
 71
     1
 72
     5
  0
DICTIONARY
  5
1A
102
{ACAD_REACTORS
330
C
102
}
330
C
100
AcDbDictionary
281
     1
  3
Layout1
350
59
  3
Model
350
22
  0
DICTIONARY
  5
72
102
{ACAD_REACTORS
330
C
102
}
330
C
100
AcDbDictionary
281
     1
  3
ByBlock
350
97
  3
ByLayer
350
96
  3
Global
350
98
  0
DICTIONARY
  5
D7
102
{ACAD_REACTORS
330
C
102
}
330
C
100
AcDbDictionary
281
     1
  3
Annotative
350
E5
  3
Standard
350
D8
  0
DICTIONARY
  5
17
102
{ACAD_REACTORS
330
C
102
}
330
C
100
AcDbDictionary
281
     1
  3
Standard
350
18
  0
DICTIONARY
  5
19
102
{ACAD_REACTORS
330
C
102
}
330
C
100
AcDbDictionary
281
     1
  0
ACDBDICTIONARYWDFLT
  5
E
102
{ACAD_REACTORS
330
C
102
}
330
C
100
AcDbDictionary
281
     1
  3
Normal
350
F
100
AcDbDictionaryWithDefault
340
F
  0
DICTIONARY
  5
9A3
102
{ACAD_REACTORS
330
C
102
}
330
C
100
AcDbDictionary
281
     1
  3
Coffee-Break Quality
350
9A7
  3
High
350
9A6
  3
Low
350
9A4
  3
Lunch Quality
350
9A8
  3
Medium
350
9A5
  3
Overnight Quality
350
9A9
  0
DICTIONARY
  5
B6
102
{ACAD_REACTORS
330
C
102
}
330
C
100
AcDbDictionary
281
     1
  3
A0
350
B7
  3
A1
350
1785
  3
A2
350
922
  3
A3
350
1786
  3
A4
350
1787
  3
A5
350
1788
  3
A6
350
1789
  3
A7
350
178A
  3
A8
350
178B
  3
A9
350
178C
  3
B0
350
178D
  3
B1
350
178E
  3
B2
350
178F
  3
B3
350
1790
  3
B4
350
1791
  3
B5
350
1792
  3
B6
350
1793
  3
B7
350
1794
  3
B8
350
1795
  0
DICTIONARY
  5
1A8
102
{ACAD_REACTORS
330
C
102
}
330
C
100
AcDbDictionary
281
     1
  3
ASME Y14.3 - 2003
350
273
  3
Imperial24
350
1AA
  0
DICTIONARY
  5
86
102
{ACAD_REACTORS
330
C
102
}
330
C
100
AcDbDictionary
281
     1
  3
Standard
350
87
  0
DICTIONARY
  5
99
102
{ACAD_REACTORS
330
C
102
}
330
C
100
AcDbDictionary
281
     1
  3
2dWireframe
350
9F
  3
Basic
350
9E
  3
Brighten
350
A5
  3
ColorChange
350
A9
  3
Conceptual
350
A2
  3
Dim
350
A4
  3
EdgeColorOff
350
175
  3
Facepattern
350
A8
  3
Flat
350
9A
  3
FlatWithEdges
350
9B
  3
Gouraud
350
9C
  3
GouraudWithEdges
350
9D
  3
Hidden
350
A1
  3
JitterOff
350
173
  3
Linepattern
350
A7
  3
OverhangOff
350
174
  3
Realistic
350
A3
  3
Shaded
350
182
  3
Shaded with edges
350
181
  3
Shades of Gray
350
17E
  3
Sketchy
350
17F
  3
Thicken
350
A6
  3
Wireframe
350
A0
  3
X-Ray
350
180
  0
XRECORD
  5
20DF
102
{ACAD_REACTORS
330
C
102
}
330
C
100
AcDbXrecord
280
     1
 90
        1
330
87
  0
DICTIONARY
  5
66
102
{ACAD_REACTORS
330
C
102
}
330
C
100
AcDbDictionary
281
     1
  3
CANNOSCALE
350
F0
  3
CMLEADERSTYLE
350
EF
  3
CTABLESTYLE
350
89
  3
CVIEWDETAILSTYLE
350
1B7
  3
CVIEWSECTIONSTYLE
350
1B8
  3
DIMASSOC
350
67
  3
FIELDEVAL
350
A9C
  3
HIDETEXT
350
6B
  3
LAYEREVAL
350
14D
  3
LAYERNOTIFY
350
14E
  0
ACAD_PROXY_OBJECT
  5
21E
102
{ACAD_REACTORS
330
C
102
}
330
C
100
AcDbProxyObject
 90
      499
 91
      525
 71
    33
 97
      157
 70
     0
162
                 0
161
                34
310
0C000042CC
 94
        0
  0
ACAD_PROXY_OBJECT
  5
222
102
{ACAD_REACTORS
330
C
102
}
330
C
100
AcDbProxyObject
 90
      499
 91
      528
 71
    33
 97
      157
 70
     0
162
                 0
161
               114
310
04000041C08000000000000000000C
 94
        0
  0
DICTIONARY
  5
23A
102
{ACAD_REACTORS
330
C
102
}
330
C
100
AcDbDictionary
281
     1
  3
AcmBOMDATA
350
23B
  3
AcmStdDictionary
350
23C
  0
ACAD_PROXY_OBJECT
  5
216
102
{ACAD_REACTORS
330
C
102
}
330
C
100
AcDbProxyObject
 90
      499
 91
      520
 71
    33
 97
      157
 70
     0
162
              8860
311
4150C0130013C014C011401314D005300470020002D0020005000500041003A002000200020006400650073006B0074006F0070002E006100720078002000460069006C006500560065007200730069006F006E003A002000320033002E0030002E00340036002E0030002E0030004115401380110013C010455004E004400
311
4F00429400148013C014001140148015001240114014C010E4C00410059004F00550054005F0043004F004E00540052004F004C004150C0130013C014C011401314D005300470020002D0020005000500041003A002000200020006400650073006B0074006F0070002E006100720078002000460069006C00650056006500
311
7200730069006F006E003A002000320033002E0030002E00340036002E0030002E0030004115401380110013C010455004E0044004F004150C0130013C014C011401314D005300470020002D0020005000500041003A002000200020006400650073006B0074006F0070002E006100720078002000460069006C0065005600
311
65007200730069006F006E003A002000320033002E0030002E00340036002E0030002E0030004115401380110013C010455004E0044004F004393001040164013C01540150017C010C013C013801500148013C0130010E4C00410059004F00550054005F0043004F004E00540052004F004C0041134013C015801140105430
311
04C004F00530045004C534014C011C008000B4008001400140010400E80080008000800190019401CC01AC01D001BC01C000B8018401C801E00080011801A401B001940158019401C801CC01A401BC01B800E8008000C800CC00B800C000B800D000D800B800C000B800C0010455004E0044004F004115401380110013C010
311
543004C004F00530045004C534014C011C008000B4008001400140010400E80080008000800190019401CC01AC01D001BC01C000B8018401C801E00080011801A401B001940158019401C801CC01A401BC01B800E8008000C800CC00B800C000B800D000D800B800C000B800C0010455004E0044004F004115401380110013
311
C010E4C00410059004F00550054005F0043004F004E00540052004F004C00429400148013C014001140148015001240114014C01044D004F005600450046134014C011C008000B40080010C01BC01B401B4018401B801900080010C01040138010C0114013001300114011000B801044D004F0056004500415140148010401
311
4C0114010443004F00500059004115001480124013401184D005300470020002D00200043006F006D006D0061006E0064002000430041004E00430045004C004C00450044002E004151401480104014C0114010C47005200490050005F00530054005200450054004300480041544014C01040158011401314D00530047002
311
0002D0020005000500041003A002000200020006400650073006B0074006F0070002E006100720078002000460069006C006500560065007200730069006F006E003A002000320034002E0030002E00350031002E0030002E003000C
161
               438
310
47805010101806018060140404060180501010180601806018050101018060140404060180601805010101806018050101018060140404
 94
        0
  0
ACAD_PROXY_OBJECT
  5
215
102
{ACAD_REACTORS
330
C
102
}
330
C
100
AcDbProxyObject
 90
      499
 91
      519
 71
    33
 97
      157
 70
     0
162
                 0
161
               266
310
160000554080000000000000000010C442000000000000000000000000AAA406AA8C
360
218
360
228
360
22B
360
22C
360
22D
360
22E
360
22F
360
234
360
235
360
236
360
237
360
238
 94
        0
  0
ACAD_PROXY_OBJECT
  5
219
102
{ACAD_REACTORS
330
C
102
}
330
C
100
AcDbProxyObject
 90
      499
 91
      523
 71
    33
 97
      157
 70
     0
162
                 0
161
                50
310
16000045A4128C
 94
        0
  0
ACAD_PROXY_OBJECT
  5
217
102
{ACAD_REACTORS
330
C
102
}
330
C
100
AcDbProxyObject
 90
      499
 91
      521
 71
    33
 97
      157
 70
     0
162
                 0
161
                32
310
90140A0000
330
218
 94
        0
  0
ACAD_PROXY_OBJECT
  5
227
102
{ACAD_REACTORS
330
C
102
}
330
C
100
AcDbProxyObject
 90
      499
 91
      521
 71
    33
 97
      157
 70
     0
162
                 0
161
                32
310
90140A0000
330
228
 94
        0
  0
DICTIONARY
  5
20E
102
{ACAD_REACTORS
330
C
102
}
330
C
100
AcDbDictionary
281
     1
  3
AcMgSettings
350
20F
  3
AMGLAYCFG
350
24F
  0
DICTIONARY
  5
406
102
{ACAD_REACTORS
330
C
102
}
330
C
100
AcDbDictionary
281
     1
  3
DIMENSION
350
40B
  3
FEA
350
40A
  3
HATCH (1)
350
407
  3
HATCH (2)
350
408
  3
SIMPLE WELD
350
40C
  3
SYMBOLS
350
409
  0
ACAD_PROXY_OBJECT
  5
223
102
{ACAD_REACTORS
330
C
102
}
330
C
100
AcDbProxyObject
 90
      499
 91
      529
 71
    33
 97
      157
 70
     0
162
                 0
161
                34
310
050000428C
 94
        0
  0
ACAD_PROXY_OBJECT
  5
230
102
{ACAD_REACTORS
330
C
102
}
330
C
100
AcDbProxyObject
 90
      499
 91
      535
 71
    33
 97
      157
 70
     0
162
                 0
161
                98
310
0E000053C0000000000000000C
330
236
330
0
330
237
330
0
330
0
330
0
330
0
330
0
 94
        0
  0
ACAD_PROXY_OBJECT
  5
22A
102
{ACAD_REACTORS
330
C
102
}
330
C
100
AcDbProxyObject
 90
      499
 91
      521
 71
    33
 97
      157
 70
     0
162
                 0
161
                64
310
90541A000000000000
330
22B
330
22C
330
22D
330
22E
330
22F
 94
        0
  0
ACAD_PROXY_OBJECT
  5
226
102
{ACAD_REACTORS
330
C
102
}
330
C
100
AcDbProxyObject
 90
      499
 91
      532
 71
    33
 97
      157
 70
     0
162
                 0
161
                 8
310
0500
 94
        0
  0
ACAD_PROXY_OBJECT
  5
3DA
102
{ACAD_REACTORS
330
C
102
}
330
C
100
AcDbProxyObject
 90
      499
 91
      571
 71
    33
 97
      157
 70
     0
162
                 0
161
                 1
310
4C
 94
        0
  0
DICTIONARY
  5
18F
102
{ACAD_REACTORS
330
18E
102
}
330
18E
100
AcDbDictionary
281
     1
  0
SORTENTSTABLE
  5
973
102
{ACAD_REACTORS
330
15D
102
}
330
15D
100
AcDbSortentsTable
330
1F
331
15E0
  5
1EE7
331
15E1
  5
15E0
331
15E2
  5
15E1
331
15E3
  5
15E2
331
15E5
  5
15E3
331
15E6
  5
15E5
331
15E7
  5
15E6
331
15E8
  5
15E7
331
15E9
  5
15E8
331
15EA
  5
15E9
331
15EB
  5
15EA
331
15EC
  5
15EB
331
15ED
  5
15EC
331
15EE
  5
15ED
331
15EF
  5
15EE
331
15F0
  5
15EF
331
15F1
  5
15F0
331
15F2
  5
15F1
331
15F3
  5
15F2
331
15F4
  5
15F3
331
15F5
  5
15F4
331
15F6
  5
15F5
331
15F7
  5
15F6
331
15F8
  5
15F7
331
15F9
  5
15F8
331
15FA
  5
15F9
331
15FB
  5
15FA
331
15FC
  5
15FB
331
15FD
  5
15FC
331
15FE
  5
15FD
331
15FF
  5
15FE
331
1600
  5
15FF
331
1601
  5
1600
331
1602
  5
1601
331
1603
  5
1602
331
1604
  5
1603
331
1605
  5
1604
331
1607
  5
1605
331
1608
  5
1607
331
1609
  5
1608
331
160A
  5
1609
331
160C
  5
160A
331
160D
  5
160C
331
160E
  5
160D
331
1616
  5
160E
331
1617
  5
1616
331
1618
  5
1617
331
1619
  5
1618
331
161A
  5
1619
331
161B
  5
161A
331
161C
  5
161B
331
161D
  5
161C
331
161E
  5
161D
331
161F
  5
161E
331
1620
  5
161F
331
1621
  5
1620
331
1622
  5
1621
331
1623
  5
1622
331
1624
  5
1623
331
1625
  5
1624
331
1626
  5
1625
331
1627
  5
1626
331
1628
  5
1627
331
1629
  5
1628
331
162A
  5
1629
331
162B
  5
162A
331
162C
  5
162B
331
162D
  5
162C
331
162E
  5
162D
331
162F
  5
162E
331
1630
  5
162F
331
1631
  5
1630
331
1632
  5
1631
331
1633
  5
1632
331
1634
  5
1633
331
1635
  5
1634
331
163C
  5
1635
331
163D
  5
163C
331
163E
  5
163D
331
163F
  5
163E
331
1644
  5
163F
331
1646
  5
1644
331
1647
  5
1646
331
1648
  5
1647
331
1649
  5
1648
331
164A
  5
1649
331
164B
  5
164A
331
164C
  5
164B
331
164D
  5
164C
331
164E
  5
164D
331
164F
  5
164E
331
1650
  5
164F
331
1651
  5
1650
331
1652
  5
1651
331
1653
  5
1652
331
1654
  5
1653
331
1655
  5
1654
331
1656
  5
1655
331
1657
  5
1656
331
1658
  5
1657
331
1659
  5
1658
331
165A
  5
1659
331
165B
  5
165A
331
165C
  5
165B
331
165D
  5
165C
331
165E
  5
165D
331
165F
  5
165E
331
1660
  5
165F
331
1661
  5
1660
331
1662
  5
1661
331
1663
  5
1662
331
1664
  5
1663
331
1665
  5
1664
331
1666
  5
1665
331
1667
  5
1666
331
1668
  5
1667
331
1669
  5
1668
331
166A
  5
1669
331
166B
  5
166A
331
166C
  5
166B
331
166D
  5
166C
331
166E
  5
166D
331
166F
  5
166E
331
1670
  5
166F
331
1671
  5
1670
331
1672
  5
1671
331
1673
  5
1672
331
1674
  5
1673
331
1675
  5
1674
331
1676
  5
1675
331
1677
  5
1676
331
1678
  5
1677
331
1679
  5
1678
331
167A
  5
1679
331
167B
  5
167A
331
167C
  5
167B
331
167D
  5
167C
331
167E
  5
167D
331
167F
  5
167E
331
1680
  5
167F
331
1681
  5
1680
331
1682
  5
1681
331
1683
  5
1682
331
1684
  5
1683
331
1685
  5
1684
331
1686
  5
1685
331
1687
  5
1686
331
1688
  5
1687
331
1689
  5
1688
331
168A
  5
1689
331
168B
  5
168A
331
168C
  5
168B
331
168D
  5
168C
331
168E
  5
168D
331
168F
  5
168E
331
1690
  5
168F
331
1691
  5
1690
331
1692
  5
1691
331
1693
  5
1692
331
1694
  5
1693
331
1695
  5
1694
331
1696
  5
1695
331
1697
  5
1696
331
1698
  5
1697
331
1699
  5
1698
331
169A
  5
1699
331
169B
  5
169A
331
169C
  5
169B
331
169D
  5
169C
331
169E
  5
169D
331
169F
  5
169E
331
16A0
  5
169F
331
16A1
  5
16A0
331
16A2
  5
16A1
331
16A3
  5
16A2
331
16A4
  5
16A3
331
16A5
  5
16A4
331
16A6
  5
16A5
331
16A7
  5
16A6
331
16A8
  5
16A7
331
16A9
  5
16A8
331
16AA
  5
16A9
331
16AB
  5
16AA
331
16AC
  5
16AB
331
16AD
  5
16AC
331
16AE
  5
16AD
331
16AF
  5
16AE
331
16B0
  5
16AF
331
16B1
  5
16B0
331
16B2
  5
16B1
331
16B3
  5
16B2
331
16B4
  5
16B3
331
16B5
  5
16B4
331
16B6
  5
16B5
331
16B7
  5
16B6
331
16B8
  5
16B7
331
16B9
  5
16B8
331
16BA
  5
16B9
331
16BB
  5
16BA
331
16BC
  5
16BB
331
16BD
  5
16BC
331
16BE
  5
16BD
331
16BF
  5
16BE
331
16C0
  5
16BF
331
16C1
  5
16C0
331
16C2
  5
16C1
331
16C3
  5
16C2
331
16C4
  5
16C3
331
16C5
  5
16C4
331
16C6
  5
16C5
331
16C7
  5
16C6
331
16C8
  5
16C7
331
16C9
  5
16C8
331
16CA
  5
16C9
331
16CB
  5
16CA
331
16CC
  5
16CB
331
16CD
  5
16CC
331
16CE
  5
16CD
331
16CF
  5
16CE
331
16D0
  5
16CF
331
16D1
  5
16D0
331
16D2
  5
16D1
331
16D3
  5
16D2
331
16D4
  5
16D3
331
16D5
  5
16D4
331
16D6
  5
16D5
331
16D7
  5
16D6
331
16D8
  5
16D7
331
16D9
  5
16D8
331
16DA
  5
16D9
331
16DB
  5
16DA
331
16DC
  5
16DB
331
16DD
  5
16DC
331
16DE
  5
16DD
331
16DF
  5
16DE
331
16E0
  5
16DF
331
16E1
  5
16E0
331
16E2
  5
16E1
331
16E3
  5
16E2
331
16E4
  5
16E3
331
16E5
  5
16E4
331
16E6
  5
16E5
331
16E7
  5
16E6
331
16E8
  5
16E7
331
16E9
  5
16E8
331
16EA
  5
16E9
331
16EB
  5
16EA
331
16EC
  5
16EB
331
16ED
  5
16EC
331
16EE
  5
16ED
331
16EF
  5
16EE
331
16F0
  5
16EF
331
16F1
  5
16F0
331
16F2
  5
16F1
331
16F3
  5
16F2
331
16F4
  5
16F3
331
16F5
  5
16F4
331
16F6
  5
16F5
331
16F7
  5
16F6
331
16F8
  5
16F7
331
16F9
  5
16F8
331
16FA
  5
16F9
331
16FB
  5
16FA
331
16FC
  5
16FB
331
16FD
  5
16FC
331
16FE
  5
16FD
331
16FF
  5
16FE
331
1700
  5
16FF
331
1701
  5
1700
331
1702
  5
1701
331
1703
  5
1702
331
1704
  5
1703
331
1705
  5
1704
331
1706
  5
1705
331
1707
  5
1706
331
1708
  5
1707
331
1709
  5
1708
331
170A
  5
1709
331
170B
  5
170A
331
170C
  5
170B
331
170D
  5
170C
331
170E
  5
170D
331
170F
  5
170E
331
1710
  5
170F
331
1711
  5
1710
331
1712
  5
1711
331
1713
  5
1712
331
1714
  5
1713
331
1715
  5
1714
331
19CA
  5
1715
331
1A6F
  5
19CA
331
1A7D
  5
1A6F
  0
SORTENTSTABLE
  5
AB8
102
{ACAD_REACTORS
330
AB7
102
}
330
AB7
100
AcDbSortentsTable
330
58
  0
DIMASSOC
  5
1FC9
102
{ACAD_REACTORS
330
1FBE
102
}
330
1FBE
100
AcDbDimAssoc
330
1FAF
 90
        3
 70
     0
 71
     0
  1
AcDbOsnapPointRef
 72
     1
331
15D7
 73
     2
 91
        0
 40
1.0
 10
0.0
 20
0.0
 30
2.000000000000000E+50
 75
     0
  1
AcDbOsnapPointRef
 72
    13
331
15DA
 73
     2
 91
        1
 40
0.0
 10
0.0
 20
0.0
 30
2.000000000000000E+50
 75
     0
  0
XRECORD
  5
292
102
{ACAD_REACTORS
330
291
102
}
330
291
100
AcDbXrecord
280
     1
 90
        1
340
B7
  0
XRECORD
  5
9A2
102
{ACAD_REACTORS
330
9A1
102
}
330
9A1
100
AcDbXrecord
280
     1
 90
        1
340
B7
  0
DICTIONARY
  5
E3D
102
{ACAD_REACTORS
330
E3C
102
}
330
E3C
100
AcDbDictionary
280
     1
281
     1
  3
TEXT
360
E3E
  0
ACDBDETAILVIEWSTYLE
  5
26D
102
{ACAD_REACTORS
330
244
330
1AB
102
}
330
1AB
100
AcDbModelDocViewStyle
 70
     0
  3

290
     0
300
ASME Y14.35 - 1987
 90
        1
100
AcDbDetailViewStyle
 70
     0
 71
     0
 90
        3
 71
     1
340
11
 62
    30
 40
0.24
340
26E
 62
     3
 40
0.24
300

 40
0.36
280
     2
 71
     2
340
16
 90
       15
 62
     3
 71
     3
340
11
 62
    30
 40
0.24
 90
        1
 40
0.75
 90
        1
300
%<\AcVar ViewType \f "%tc1">% %<\AcVar ViewDetailId>%\PSCALE %<\AcVar ViewScale \f "%sn">%
 71
     4
340
16
 90
       15
 62
     3
340
16
 90
       15
 62
     3
280
     0
  0
ACDBDETAILVIEWSTYLE
  5
1AC
102
{ACAD_REACTORS
330
1AB
330
268
102
}
330
1AB
100
AcDbModelDocViewStyle
 70
     0
  3
Imperial24
290
     0
300
Imperial24
 90
        0
100
AcDbDetailViewStyle
 70
     0
 71
     0
 90
        3
 71
     1
340
11
 62
   256
 40
0.24
340
0
 62
   256
 40
0.24
300

 40
0.36
280
     3
 71
     2
340
16
 90
       25
 62
   256
 71
     3
340
11
 62
   256
 40
0.24
 90
        1
 40
0.75
 90
        1
300
%<\AcVar ViewType \f "%tc1">% %<\AcVar ViewDetailId>%\PSCALE %<\AcVar ViewScale \f "%sn">%
 71
     4
340
16
 90
       25
 62
   256
340
16
 90
       25
 62
   256
280
     0
  0
IMAGEDEF
  5
20B5
102
{ACAD_REACTORS
330
5A7
330
20B6
102
}
330
5A7
100
AcDbRasterImageDef
 90
        0
  1
..\..\GG Logos\GG_logo_Horiz_K.jpg
 10
1894.0
 20
602.0
 11
0.0005279831045407
 21
0.0005279831045407
280
     1
281
     0
  0
LAYOUT
  5
59
102
{ACAD_REACTORS
330
1A
102
}
330
1A
100
AcDbPlotSettings
  1

  2
DWG To PDF.pc3
  4
ANSI_full_bleed_A_(8.50_x_11.00_Inches)
  6

 40
0.0
 41
0.0
 42
0.0
 43
0.0
 44
215.8999938964844
 45
279.3999938964844
 46
12.70145305537323
 47
12.82402317228734
 48
0.0
 49
0.0
140
0.0
141
0.0
142
1.0
143
1.0
 70
   692
 72
     0
 73
     0
 74
     1
  7
monochrome.ctb
 75
    16
147
1.0
 76
     0
 77
     2
 78
   300
148
-7.851940027100106
149
-8.09419593931163
100
AcDbLayout
  1
Layout1
 70
     1
 71
     1
 10
-0.1909257097745325
 20
-0.1862136705895949
 11
8.309074049929577
 21
10.81378608911451
 12
0.0
 22
0.0
 32
0.0
 14
0.3093692292309651
 24
0.3194843464751703
 34
0.0
 15
7.808806356315961
 25
10.30808073276256
 35
0.0
146
0.0
 13
0.0
 23
0.0
 33
0.0
 16
1.0
 26
0.0
 36
0.0
 17
0.0
 27
1.0
 37
0.0
 76
     0
330
58
331
290
1001
ACAD_PSEXT
1000
DWG To PDF.pc3
1000
DWG To PDF
1000
File
1000

1070
     0
  0
LAYOUT
  5
22
102
{ACAD_XDICTIONARY
360
194
102
}
102
{ACAD_REACTORS
330
1A
102
}
330
1A
100
AcDbPlotSettings
  1

  2
none_device
  4
ANSI_A_(8.50_x_11.00_Inches)
  6

 40
6.349999904632568
 41
19.04999923706055
 42
6.350006103515625
 43
19.04998779296875
 44
215.8999938964844
 45
279.3999938964844
 46
0.0
 47
0.0
 48
0.0
 49
0.0
140
0.0
141
0.0
142
1.0
143
2.584895464708373
 70
 11952
 72
     0
 73
     1
 74
     0
  7

 75
     0
147
0.3868628397755418
 76
     0
 77
     2
 78
   300
148
0.0
149
0.0
100
AcDbLayout
  1
Model
 70
     1
 71
     0
 10
0.0
 20
0.0
 11
12.0
 21
9.0
 12
0.0
 22
0.0
 32
0.0
 14
0.0
 24
0.0
 34
0.0
 15
0.0
 25
0.0
 35
0.0
146
0.0
 13
0.0
 23
0.0
 33
0.0
 16
1.0
 26
0.0
 36
0.0
 17
0.0
 27
1.0
 37
0.0
 76
     0
330
1F
331
94
  0
MATERIAL
  5
97
102
{ACAD_XDICTIONARY
360
188
102
}
102
{ACAD_REACTORS
330
72
102
}
330
72
100
AcDbMaterial
  1
ByBlock
 94
       63
  0
MATERIAL
  5
96
102
{ACAD_XDICTIONARY
360
186
102
}
102
{ACAD_REACTORS
330
72
102
}
330
72
100
AcDbMaterial
  1
ByLayer
 94
       63
  0
MATERIAL
  5
98
102
{ACAD_XDICTIONARY
360
110
102
}
102
{ACAD_REACTORS
330
72
102
}
330
72
100
AcDbMaterial
  1
Global
 43
0.0208000000566244
 43
0.0
 43
0.0
 43
0.0
 43
0.0
 43
0.0208000000566244
 43
0.0
 43
0.0
 43
0.0
 43
0.0
 43
1.0
 43
0.0
 43
0.0
 43
0.0
 43
0.0
 43
1.0
 49
0.0208000000566244
 49
0.0
 49
0.0
 49
0.0
 49
0.0
 49
0.0208000000566244
 49
0.0
 49
0.0
 49
0.0
 49
0.0
 49
1.0
 49
0.0
 49
0.0
 49
0.0
 49
0.0
 49
1.0
142
0.0208000000566244
142
0.0
142
0.0
142
0.0
142
0.0
142
0.0208000000566244
142
0.0
142
0.0
142
0.0
142
0.0
142
1.0
142
0.0
142
0.0
142
0.0
142
0.0
142
1.0
144
0.0208000000566244
144
0.0
144
0.0
144
0.0
144
0.0
144
0.0208000000566244
144
0.0
144
0.0
144
0.0
144
0.0
144
1.0
144
0.0
144
0.0
144
0.0
144
0.0
144
1.0
 94
       63
1001
ACAD
1070
    -1
1070
     3
1070
     0
1000

1071
        0
1070
     0
  0
MLEADERSTYLE
  5
E5
102
{ACAD_REACTORS
330
D7
102
}
330
D7
100
AcDbMLeaderStyle
179
     2
170
     2
171
     1
172
     0
 90
        2
 40
0.0
 41
0.0
173
     1
 91
-1056964608
340
14
 92
       -2
290
     1
 42
0.09
291
     1
 43
0.36
  3
Standard
 44
0.18
300

342
11
174
     1
178
     1
175
     1
176
     0
 93
-1056964608
 45
0.18
292
     0
297
     0
 46
0.18
 94
-1056964608
 47
1.0
 49
1.0
140
1.0
293
     1
141
0.0
294
     1
177
     0
142
1.0
295
     0
296
     1
143
0.125
271
     0
272
     9
273
     9
298
     0
  0
MLEADERSTYLE
  5
D8
102
{ACAD_REACTORS
330
D7
102
}
330
D7
100
AcDbMLeaderStyle
179
     2
170
     2
171
     1
172
     0
 90
        2
 40
0.0
 41
0.0
173
     1
 91
-1056964608
340
14
 92
       -2
290
     1
 42
0.09
291
     1
 43
0.36
  3
Standard
 44
0.18
300

342
11
174
     1
178
     1
175
     1
176
     0
 93
-1056964608
 45
0.18
292
     0
297
     0
 46
0.18
 94
-1056964608
 47
1.0
 49
1.0
140
1.0
293
     1
141
0.0
294
     1
177
     0
142
1.0
295
     0
296
     0
143
0.125
271
     0
272
     9
273
     9
298
     0
  0
MLINESTYLE
  5
18
102
{ACAD_REACTORS
330
17
102
}
330
17
100
AcDbMlineStyle
  2
STANDARD
 70
     0
  3

 62
   256
 51
90.0
 52
90.0
 71
     2
 49
0.5
 62
   256
  6
BYLAYER
 49
-0.5
 62
   256
  6
BYLAYER
  0
ACDBPLACEHOLDER
  5
F
102
{ACAD_REACTORS
330
E
102
}
330
E
  0
RAPIDRTRENDERSETTINGS
  5
9A7
102
{ACAD_REACTORS
330
9A3
102
}
330
9A3
100
AcDbRenderSettings
 90
        2
  1
Coffee-Break Quality
290
     1
290
     0
290
     1
290
     1
  1

  1
Renders for 10 minutes
 90
        3
100
AcDbRapidRTRenderSettings
 90
        3
 70
     1
 90
        1
 90
       10
 70
     1
 70
     2
 40
3.0
 40
3.0
290
     1
  0
RAPIDRTRENDERSETTINGS
  5
9A6
102
{ACAD_REACTORS
330
9A3
102
}
330
9A3
100
AcDbRenderSettings
 90
        2
  1
High
290
     1
290
     0
290
     1
290
     1
  1

  1
Applies 10 rendering levels
 90
        2
100
AcDbRapidRTRenderSettings
 90
        3
 70
     0
 90
       10
 90
        1
 70
     2
 70
     2
 40
3.0
 40
3.0
290
     1
  0
RAPIDRTRENDERSETTINGS
  5
9A4
102
{ACAD_REACTORS
330
9A3
102
}
330
9A3
100
AcDbRenderSettings
 90
        2
  1
Low
290
     1
290
     0
290
     1
290
     1
  1

  1
Applies 1 rendering level
 90
        0
100
AcDbRapidRTRenderSettings
 90
        3
 70
     0
 90
        1
 90
        1
 70
     0
 70
     2
 40
3.0
 40
3.0
290
     1
  0
RAPIDRTRENDERSETTINGS
  5
9A8
102
{ACAD_REACTORS
330
9A3
102
}
330
9A3
100
AcDbRenderSettings
 90
        2
  1
Lunch Quality
290
     1
290
     0
290
     1
290
     1
  1

  1
Renders for 60 minutes
 90
        4
100
AcDbRapidRTRenderSettings
 90
        3
 70
     1
 90
        1
 90
       60
 70
     2
 70
     2
 40
3.0
 40
3.0
290
     1
  0
RAPIDRTRENDERSETTINGS
  5
9A5
102
{ACAD_REACTORS
330
9A3
102
}
330
9A3
100
AcDbRenderSettings
 90
        2
  1
Medium
290
     1
290
     0
290
     1
290
     1
  1

  1
Applies 5 rendering levels
 90
        1
100
AcDbRapidRTRenderSettings
 90
        3
 70
     0
 90
        5
 90
        1
 70
     1
 70
     2
 40
3.0
 40
3.0
290
     1
  0
RAPIDRTRENDERSETTINGS
  5
9A9
102
{ACAD_REACTORS
330
9A3
102
}
330
9A3
100
AcDbRenderSettings
 90
        2
  1
Overnight Quality
290
     1
290
     0
290
     1
290
     1
  1

  1
Renders for 12 hours
 90
        5
100
AcDbRapidRTRenderSettings
 90
        3
 70
     1
 90
        1
 90
      720
 70
     2
 70
     2
 40
3.0
 40
3.0
290
     1
  0
SCALE
  5
B7
102
{ACAD_REACTORS
330
B6
102
}
330
B6
100
AcDbScale
 70
     0
300
1:1
140
1.0
141
1.0
290
     1
  0
SCALE
  5
1785
102
{ACAD_REACTORS
330
B6
102
}
330
B6
100
AcDbScale
 70
     0
300
1"-1.25"
140
1.0
141
1.25
290
     0
  0
SCALE
  5
922
102
{ACAD_REACTORS
330
B6
102
}
330
B6
100
AcDbScale
 70
     0
300
1"-1.5"
140
1.0
141
1.5
290
     0
  0
SCALE
  5
1786
102
{ACAD_REACTORS
330
B6
102
}
330
B6
100
AcDbScale
 70
     0
300
1/128" = 1'-0"
140
0.0078125
141
12.0
290
     0
  0
SCALE
  5
1787
102
{ACAD_REACTORS
330
B6
102
}
330
B6
100
AcDbScale
 70
     0
300
1/64" = 1'-0"
140
0.015625
141
12.0
290
     0
  0
SCALE
  5
1788
102
{ACAD_REACTORS
330
B6
102
}
330
B6
100
AcDbScale
 70
     0
300
1/32" = 1'-0"
140
0.03125
141
12.0
290
     0
  0
SCALE
  5
1789
102
{ACAD_REACTORS
330
B6
102
}
330
B6
100
AcDbScale
 70
     0
300
1/16" = 1'-0"
140
0.0625
141
12.0
290
     0
  0
SCALE
  5
178A
102
{ACAD_REACTORS
330
B6
102
}
330
B6
100
AcDbScale
 70
     0
300
3/32" = 1'-0"
140
0.09375
141
12.0
290
     0
  0
SCALE
  5
178B
102
{ACAD_REACTORS
330
B6
102
}
330
B6
100
AcDbScale
 70
     0
300
1/8" = 1'-0"
140
0.125
141
12.0
290
     0
  0
SCALE
  5
178C
102
{ACAD_REACTORS
330
B6
102
}
330
B6
100
AcDbScale
 70
     0
300
3/16" = 1'-0"
140
0.1875
141
12.0
290
     0
  0
SCALE
  5
178D
102
{ACAD_REACTORS
330
B6
102
}
330
B6
100
AcDbScale
 70
     0
300
1/4" = 1'-0"
140
0.25
141
12.0
290
     0
  0
SCALE
  5
178E
102
{ACAD_REACTORS
330
B6
102
}
330
B6
100
AcDbScale
 70
     0
300
3/8" = 1'-0"
140
0.375
141
12.0
290
     0
  0
SCALE
  5
178F
102
{ACAD_REACTORS
330
B6
102
}
330
B6
100
AcDbScale
 70
     0
300
1/2" = 1'-0"
140
0.5
141
12.0
290
     0
  0
SCALE
  5
1790
102
{ACAD_REACTORS
330
B6
102
}
330
B6
100
AcDbScale
 70
     0
300
3/4" = 1'-0"
140
0.75
141
12.0
290
     0
  0
SCALE
  5
1791
102
{ACAD_REACTORS
330
B6
102
}
330
B6
100
AcDbScale
 70
     0
300
1" = 1'-0"
140
1.0
141
12.0
290
     0
  0
SCALE
  5
1792
102
{ACAD_REACTORS
330
B6
102
}
330
B6
100
AcDbScale
 70
     0
300
1-1/2" = 1'-0"
140
1.5
141
12.0
290
     0
  0
SCALE
  5
1793
102
{ACAD_REACTORS
330
B6
102
}
330
B6
100
AcDbScale
 70
     0
300
3" = 1'-0"
140
3.0
141
12.0
290
     0
  0
SCALE
  5
1794
102
{ACAD_REACTORS
330
B6
102
}
330
B6
100
AcDbScale
 70
     0
300
6" = 1'-0"
140
6.0
141
12.0
290
     0
  0
SCALE
  5
1795
102
{ACAD_REACTORS
330
B6
102
}
330
B6
100
AcDbScale
 70
     0
300
1'-0" = 1'-0"
140
12.0
141
12.0
290
     0
  0
ACDBSECTIONVIEWSTYLE
  5
273
102
{ACAD_XDICTIONARY
360
274
102
}
102
{ACAD_REACTORS
330
245
330
1A8
102
}
330
1A8
100
AcDbModelDocViewStyle
 70
     0
  3

290
     1
300
ASME Y14.3 - 2003
 90
        1
100
AcDbSectionViewStyle
 70
     0
 71
     0
 90
       78
 71
     1
340
11
 62
    30
 40
0.24
340
0
340
0
 62
     7
 40
0.24
300
I,O,Q,S,X,Z
 40
0.4
 90
        3
 40
0.12
 90
        1
 71
     2
340
21B
 90
       30
 62
     7
340
21B
 90
       30
 62
     7
 40
0.4
 40
0.0
 40
0.4
 71
     3
340
11
 62
    30
 40
0.24
 90
        0
 40
0.18
 90
        1
300
%<\AcVar ViewType \f "%tc1">% %<\AcVar ViewSectionStartId>%-%<\AcVar ViewSectionEndId>%
 71
     4
 62
   256
 62
   257
300
ANSI31
 40
1.0
 90
        0
290
     0
290
     0
 90
        6
 40
0.0
 40
1.570796326794896
 40
0.2617993877991494
 40
1.308996938995747
 40
-0.2617993877991494
 40
1.832595714594046
  0
ACDBSECTIONVIEWSTYLE
  5
1AA
102
{ACAD_REACTORS
330
1A8
330
267
102
}
330
1A8
100
AcDbModelDocViewStyle
 70
     0
  3
Imperial24
290
     0
300
Imperial24
 90
        0
100
AcDbSectionViewStyle
 70
     0
 71
     0
 90
       78
 71
     1
340
11
 62
   256
 40
0.24
340
0
340
0
 62
   256
 40
0.24
300
I, O, Q, S, X, Z
 40
0.48
 90
        3
 40
0.18
 90
        1
 71
     2
340
16
 90
       25
 62
   256
340
16
 90
       50
 62
   256
 40
0.24
 40
0.0
 40
0.24
 71
     3
340
11
 62
   256
 40
0.24
 90
        1
 40
0.75
 90
        1
300
%<\AcVar ViewType \f "%tc1">% %<\AcVar ViewSectionStartId>%-%<\AcVar ViewSectionEndId>%\PSCALE %<\AcVar ViewScale \f "%sn">%
 71
     4
 62
   256
 62
   257
300
ANSI31
 40
1.0
 90
        0
290
     0
290
     0
 90
        6
 40
0.0
 40
1.570796326794896
 40
0.2617993877991494
 40
1.308996938995747
 40
-0.2617993877991494
 40
1.832595714594046
  0
TABLESTYLE
  5
87
102
{ACAD_XDICTIONARY
360
104
102
}
102
{ACAD_REACTORS
330
86
102
}
330
86
100
AcDbTableStyle
280
     0
  3
Standard
 70
     0
 71
     0
 40
0.06
 41
0.06
280
     0
281
     0
  7
Standard
140
0.18
170
     2
 62
     0
 63
     7
283
     0
 90
      512
 91
        0
  1

274
    -2
284
     1
 64
     0
275
    -2
285
     1
 65
     0
276
    -2
286
     1
 66
     0
277
    -2
287
     1
 67
     0
278
    -2
288
     1
 68
     0
279
    -2
289
     1
 69
     0
  7
Standard
140
0.25
170
     5
 62
     0
 63
     7
283
     0
 90
      512
 91
        0
  1

274
    -2
284
     1
 64
     0
275
    -2
285
     1
 65
     0
276
    -2
286
     1
 66
     0
277
    -2
287
     1
 67
     0
278
    -2
288
     1
 68
     0
279
    -2
289
     1
 69
     0
  7
Standard
140
0.18
170
     5
 62
     0
 63
     7
283
     0
 90
      512
 91
        0
  1

274
    -2
284
     1
 64
     0
275
    -2
285
     1
 65
     0
276
    -2
286
     1
 66
     0
277
    -2
287
     1
 67
     0
278
    -2
288
     1
 68
     0
279
    -2
289
     1
 69
     0
  0
VISUALSTYLE
  5
9F
102
{ACAD_REACTORS
330
99
102
}
330
99
100
AcDbVisualStyle
  2
2dWireframe
 70
     4
177
     3
291
     0
 70
    58
 90
        0
176
     1
 90
        2
176
     1
 90
        1
176
     1
 90
        0
176
     1
 40
0.6
176
     1
 40
30.0
176
     1
 62
     7
420
 16777215
176
     1
 90
        1
176
     1
 90
        4
176
     1
 62
     7
176
     1
 62
   257
176
     1
 90
        1
176
     1
 90
        1
176
     1
 40
1.0
176
     1
 90
        0
176
     1
 62
   257
176
     1
 40
1.0
176
     1
 90
        1
176
     1
 90
        6
176
     1
 90
        2
176
     1
 62
     7
176
     1
 90
        5
176
     1
 90
        0
176
     1
 90
        0
176
     1
290
     0
176
     1
 90
        1
176
     1
 40
0.0
176
     1
 90
        0
176
     1
290
     1
176
     1
290
     1
176
     1
290
     0
176
     1
290
     0
176
     1
290
     0
176
     1
290
     0
176
     1
290
     0
176
     1
290
     0
176
     1
290
     0
176
     1
 90
       50
176
     1
 40
0.0
176
     1
 40
1.0
176
     1
 90
        0
176
     1
 62
    18
420
        0
176
     1
 90
       50
176
     1
 90
        3
176
     1
 62
     5
420
      255
176
     1
290
     0
176
     1
 90
       50
176
     1
 90
       50
176
     1
 90
       50
176
     1
290
     0
176
     1
 90
       50
176
     1
 62
   256
176
     0
 40
1.0
176
     0
 90
        2
176
     1
  1
strokes_ogs.tif
176
     1
290
     0
176
     1
 40
1.0
176
     1
 40
1.0
176
     1
  0
VISUALSTYLE
  5
9E
102
{ACAD_REACTORS
330
99
102
}
330
99
100
AcDbVisualStyle
  2
Basic
 70
     7
177
     3
291
     1
 70
    58
 90
        1
176
     1
 90
        0
176
     1
 90
        1
176
     1
 90
        0
176
     1
 40
0.6
176
     1
 40
30.0
176
     1
 62
     7
420
 16777215
176
     1
 90
        0
176
     1
 90
        4
176
     1
 62
     7
176
     1
 62
   257
176
     1
 90
        1
176
     1
 90
        1
176
     1
 40
1.0
176
     1
 90
        8
176
     1
 62
     7
176
     1
 40
1.0
176
     1
 90
        1
176
     1
 90
        6
176
     1
 90
        2
176
     1
 62
     7
176
     1
 90
        5
176
     1
 90
        0
176
     1
 90
        0
176
     1
290
     0
176
     1
 90
        1
176
     1
 40
0.0
176
     1
 90
        0
176
     1
290
     0
176
     1
290
     1
176
     1
290
     1
176
     1
290
     0
176
     1
290
     0
176
     1
290
     0
176
     1
290
     0
176
     1
290
     0
176
     1
290
     0
176
     1
 90
       50
176
     1
 40
0.0
176
     1
 40
1.0
176
     1
 90
        0
176
     1
 62
    18
420
        0
176
     1
 90
       50
176
     1
 90
        3
176
     1
 62
     5
420
      255
176
     1
290
     0
176
     1
 90
       50
176
     1
 90
       50
176
     1
 90
       50
176
     1
290
     0
176
     1
 90
       50
176
     1
 62
   256
176
     0
 40
1.0
176
     0
 90
        2
176
     1
  1
strokes_ogs.tif
176
     1
290
     0
176
     1
 40
1.0
176
     1
 40
1.0
176
     1
  0
VISUALSTYLE
  5
A5
102
{ACAD_REACTORS
330
99
102
}
330
99
100
AcDbVisualStyle
  2
Brighten
 70
    12
177
     3
291
     1
 70
    58
 90
        2
176
     1
 90
        2
176
     1
 90
        1
176
     1
 90
        0
176
     1
 40
0.6
176
     1
 40
30.0
176
     1
 62
     7
420
 16777215
176
     1
 90
        1
176
     1
 90
        4
176
     1
 62
     7
176
     1
 62
   257
176
     1
 90
        1
176
     1
 90
        1
176
     1
 40
1.0
176
     1
 90
        8
176
     1
 62
     7
176
     1
 40
1.0
176
     1
 90
        1
176
     1
 90
        6
176
     1
 90
        2
176
     1
 62
     7
176
     1
 90
        5
176
     1
 90
        0
176
     1
 90
        0
176
     1
290
     0
176
     1
 90
        1
176
     1
 40
50.0
176
     1
 90
        0
176
     1
290
     0
176
     1
290
     1
176
     1
290
     1
176
     1
290
     0
176
     1
290
     0
176
     1
290
     0
176
     1
290
     0
176
     1
290
     0
176
     1
290
     0
176
     1
 90
       50
176
     1
 40
0.0
176
     1
 40
1.0
176
     1
 90
        0
176
     1
 62
    18
420
        0
176
     1
 90
       50
176
     1
 90
        3
176
     1
 62
     5
420
      255
176
     1
290
     0
176
     1
 90
       50
176
     1
 90
       50
176
     1
 90
       50
176
     1
290
     0
176
     1
 90
       50
176
     1
 62
   256
176
     0
 40
1.0
176
     0
 90
        2
176
     1
  1
strokes_ogs.tif
176
     1
290
     0
176
     1
 40
1.0
176
     1
 40
1.0
176
     1
  0
VISUALSTYLE
  5
A9
102
{ACAD_REACTORS
330
99
102
}
330
99
100
AcDbVisualStyle
  2
ColorChange
 70
    16
177
     3
291
     1
 70
    58
 90
        2
176
     1
 90
        2
176
     1
 90
        3
176
     1
 90
        0
176
     1
 40
0.6
176
     1
 40
30.0
176
     1
 62
     8
420
  8421504
176
     1
 90
        1
176
     1
 90
        4
176
     1
 62
     7
176
     1
 62
   257
176
     1
 90
        1
176
     1
 90
        1
176
     1
 40
1.0
176
     1
 90
        8
176
     1
 62
     8
420
  8421504
176
     1
 40
1.0
176
     1
 90
        1
176
     1
 90
        6
176
     1
 90
        2
176
     1
 62
     7
176
     1
 90
        5
176
     1
 90
        0
176
     1
 90
        0
176
     1
290
     0
176
     1
 90
        1
176
     1
 40
0.0
176
     1
 90
        0
176
     1
290
     0
176
     1
290
     1
176
     1
290
     1
176
     1
290
     0
176
     1
290
     0
176
     1
290
     0
176
     1
290
     0
176
     1
290
     0
176
     1
290
     0
176
     1
 90
       50
176
     1
 40
0.0
176
     1
 40
1.0
176
     1
 90
        0
176
     1
 62
    18
420
        0
176
     1
 90
       50
176
     1
 90
        3
176
     1
 62
     5
420
      255
176
     1
290
     0
176
     1
 90
       50
176
     1
 90
       50
176
     1
 90
       50
176
     1
290
     0
176
     1
 90
       50
176
     1
 62
   256
176
     0
 40
1.0
176
     0
 90
        2
176
     1
  1
strokes_ogs.tif
176
     1
290
     0
176
     1
 40
1.0
176
     1
 40
1.0
176
     1
  0
VISUALSTYLE
  5
A2
102
{ACAD_REACTORS
330
99
102
}
330
99
100
AcDbVisualStyle
  2
Conceptual
 70
     9
177
     3
291
     0
 70
    58
 90
        3
176
     1
 90
        2
176
     1
 90
        1
176
     1
 90
        0
176
     1
 40
0.6
176
     1
 40
30.0
176
     1
 62
     7
420
 16777215
176
     1
 90
        2
176
     1
 90
        2
176
     1
 62
     7
176
     1
 62
   257
176
     1
 90
        1
176
     1
 90
        1
176
     1
 40
40.0
176
     1
 90
        8
176
     1
 62
     7
176
     1
 40
1.0
176
     1
 90
        1
176
     1
 90
        6
176
     1
 90
        2
176
     1
 62
     7
176
     1
 90
        3
176
     1
 90
        0
176
     1
 90
        0
176
     1
290
     0
176
     1
 90
        1
176
     1
 40
0.0
176
     1
 90
        0
176
     1
290
     0
176
     1
290
     1
176
     1
290
     1
176
     1
290
     0
176
     1
290
     0
176
     1
290
     0
176
     1
290
     0
176
     1
290
     0
176
     1
290
     0
176
     1
 90
       50
176
     1
 40
0.0
176
     1
 40
1.0
176
     1
 90
        0
176
     1
 62
    18
420
        0
176
     1
 90
       50
176
     1
 90
        3
176
     1
 62
     5
420
      255
176
     1
290
     0
176
     1
 90
       50
176
     1
 90
       50
176
     1
 90
       50
176
     1
290
     0
176
     1
 90
       50
176
     1
 62
   256
176
     0
 40
1.0
176
     0
 90
        2
176
     1
  1
strokes_ogs.tif
176
     1
290
     0
176
     1
 40
1.0
176
     1
 40
1.0
176
     1
  0
VISUALSTYLE
  5
A4
102
{ACAD_REACTORS
330
99
102
}
330
99
100
AcDbVisualStyle
  2
Dim
 70
    11
177
     3
291
     1
 70
    58
 90
        2
176
     1
 90
        2
176
     1
 90
        1
176
     1
 90
        0
176
     1
 40
0.6
176
     1
 40
30.0
176
     1
 62
     7
420
 16777215
176
     1
 90
        1
176
     1
 90
        4
176
     1
 62
     7
176
     1
 62
   257
176
     1
 90
        1
176
     1
 90
        1
176
     1
 40
1.0
176
     1
 90
        8
176
     1
 62
     7
176
     1
 40
1.0
176
     1
 90
        1
176
     1
 90
        6
176
     1
 90
        2
176
     1
 62
     7
176
     1
 90
        5
176
     1
 90
        0
176
     1
 90
        0
176
     1
290
     0
176
     1
 90
        1
176
     1
 40
-50.0
176
     1
 90
        0
176
     1
290
     0
176
     1
290
     1
176
     1
290
     1
176
     1
290
     0
176
     1
290
     0
176
     1
290
     0
176
     1
290
     0
176
     1
290
     0
176
     1
290
     0
176
     1
 90
       50
176
     1
 40
0.0
176
     1
 40
1.0
176
     1
 90
        0
176
     1
 62
    18
420
        0
176
     1
 90
       50
176
     1
 90
        3
176
     1
 62
     5
420
      255
176
     1
290
     0
176
     1
 90
       50
176
     1
 90
       50
176
     1
 90
       50
176
     1
290
     0
176
     1
 90
       50
176
     1
 62
   256
176
     0
 40
1.0
176
     0
 90
        2
176
     1
  1
strokes_ogs.tif
176
     1
290
     0
176
     1
 40
1.0
176
     1
 40
1.0
176
     1
  0
VISUALSTYLE
  5
175
102
{ACAD_REACTORS
330
99
102
}
330
99
100
AcDbVisualStyle
  2
EdgeColorOff
 70
    22
177
     3
291
     1
 70
    58
 90
        2
176
     0
 90
        2
176
     0
 90
        0
176
     0
 90
        0
176
     0
 40
0.6
176
     0
 40
30.0
176
     0
 62
     7
420
 16777215
176
     0
 90
        1
176
     0
 90
        4
176
     0
 62
     7
176
     0
 62
   257
176
     0
 90
        1
176
     0
 90
        1
176
     0
 40
1.0
176
     0
 90
        8
176
     2
 62
     7
176
     0
 40
1.0
176
     0
 90
        1
176
     0
 90
        6
176
     0
 90
        2
176
     0
 62
     7
176
     0
 90
        5
176
     0
 90
        0
176
     0
 90
        0
176
     0
290
     0
176
     0
 90
        1
176
     0
 40
0.0
176
     0
 90
        0
176
     0
290
     0
176
     1
290
     1
176
     1
290
     1
176
     1
290
     0
176
     1
290
     0
176
     1
290
     0
176
     1
290
     0
176
     1
290
     0
176
     1
290
     0
176
     1
 90
       50
176
     1
 40
0.0
176
     1
 40
1.0
176
     1
 90
        0
176
     1
 62
    18
420
        0
176
     1
 90
       50
176
     1
 90
        3
176
     1
 62
     5
420
      255
176
     1
290
     0
176
     1
 90
       50
176
     1
 90
       50
176
     1
 90
       50
176
     1
290
     0
176
     1
 90
       50
176
     1
 62
   256
176
     0
 40
1.0
176
     0
 90
        2
176
     1
  1
strokes_ogs.tif
176
     1
290
     0
176
     1
 40
1.0
176
     1
 40
1.0
176
     1
  0
VISUALSTYLE
  5
A8
102
{ACAD_REACTORS
330
99
102
}
330
99
100
AcDbVisualStyle
  2
Facepattern
 70
    15
177
     3
291
     1
 70
    58
 90
        2
176
     1
 90
        2
176
     1
 90
        1
176
     1
 90
        0
176
     1
 40
0.6
176
     1
 40
30.0
176
     1
 62
     7
420
 16777215
176
     1
 90
        1
176
     1
 90
        4
176
     1
 62
     7
176
     1
 62
   257
176
     1
 90
        1
176
     1
 90
        1
176
     1
 40
1.0
176
     1
 90
        8
176
     1
 62
     7
176
     1
 40
1.0
176
     1
 90
        1
176
     1
 90
        6
176
     1
 90
        2
176
     1
 62
     7
176
     1
 90
        5
176
     1
 90
        0
176
     1
 90
        0
176
     1
290
     0
176
     1
 90
        1
176
     1
 40
0.0
176
     1
 90
        0
176
     1
290
     0
176
     1
290
     1
176
     1
290
     1
176
     1
290
     0
176
     1
290
     0
176
     1
290
     0
176
     1
290
     0
176
     1
290
     0
176
     1
290
     0
176
     1
 90
       50
176
     1
 40
0.0
176
     1
 40
1.0
176
     1
 90
        0
176
     1
 62
    18
420
        0
176
     1
 90
       50
176
     1
 90
        3
176
     1
 62
     5
420
      255
176
     1
290
     0
176
     1
 90
       50
176
     1
 90
       50
176
     1
 90
       50
176
     1
290
     0
176
     1
 90
       50
176
     1
 62
   256
176
     0
 40
1.0
176
     0
 90
        2
176
     1
  1
strokes_ogs.tif
176
     1
290
     0
176
     1
 40
1.0
176
     1
 40
1.0
176
     1
  0
VISUALSTYLE
  5
9A
102
{ACAD_REACTORS
330
99
102
}
330
99
100
AcDbVisualStyle
  2
Flat
 70
     0
177
     3
291
     1
 70
    58
 90
        2
176
     1
 90
        1
176
     1
 90
        1
176
     1
 90
        2
176
     1
 40
0.6
176
     1
 40
30.0
176
     1
 62
     7
420
 16777215
176
     1
 90
        0
176
     1
 90
        0
176
     1
 62
     7
176
     1
 62
   257
176
     1
 90
        1
176
     1
 90
        1
176
     1
 40
1.0
176
     1
 90
        8
176
     1
 62
     7
176
     1
 40
1.0
176
     1
 90
        1
176
     1
 90
        6
176
     1
 90
        2
176
     1
 62
     7
176
     1
 90
        5
176
     1
 90
        0
176
     1
 90
        0
176
     1
290
     0
176
     1
 90
       13
176
     1
 40
0.0
176
     1
 90
        0
176
     1
290
     0
176
     1
290
     1
176
     1
290
     1
176
     1
290
     0
176
     1
290
     0
176
     1
290
     0
176
     1
290
     0
176
     1
290
     0
176
     1
290
     0
176
     1
 90
       50
176
     1
 40
0.0
176
     1
 40
1.0
176
     1
 90
        0
176
     1
 62
    18
420
        0
176
     1
 90
       50
176
     1
 90
        3
176
     1
 62
     5
420
      255
176
     1
290
     0
176
     1
 90
       50
176
     1
 90
       50
176
     1
 90
       50
176
     1
290
     0
176
     1
 90
       50
176
     1
 62
   256
176
     0
 40
1.0
176
     0
 90
        2
176
     1
  1
strokes_ogs.tif
176
     1
290
     0
176
     1
 40
1.0
176
     1
 40
1.0
176
     1
  0
VISUALSTYLE
  5
9B
102
{ACAD_REACTORS
330
99
102
}
330
99
100
AcDbVisualStyle
  2
FlatWithEdges
 70
     1
177
     3
291
     1
 70
    58
 90
        2
176
     1
 90
        1
176
     1
 90
        1
176
     1
 90
        2
176
     1
 40
0.6
176
     1
 40
30.0
176
     1
 62
     7
420
 16777215
176
     1
 90
        1
176
     1
 90
        0
176
     1
 62
     7
176
     1
 62
   257
176
     1
 90
        1
176
     1
 90
        1
176
     1
 40
1.0
176
     1
 90
        0
176
     1
 62
   257
176
     1
 40
1.0
176
     1
 90
        1
176
     1
 90
        6
176
     1
 90
        2
176
     1
 62
     7
176
     1
 90
        5
176
     1
 90
        0
176
     1
 90
        0
176
     1
290
     0
176
     1
 90
       13
176
     1
 40
0.0
176
     1
 90
        0
176
     1
290
     0
176
     1
290
     1
176
     1
290
     1
176
     1
290
     0
176
     1
290
     0
176
     1
290
     0
176
     1
290
     0
176
     1
290
     0
176
     1
290
     0
176
     1
 90
       50
176
     1
 40
0.0
176
     1
 40
1.0
176
     1
 90
        0
176
     1
 62
    18
420
        0
176
     1
 90
       50
176
     1
 90
        3
176
     1
 62
     5
420
      255
176
     1
290
     0
176
     1
 90
       50
176
     1
 90
       50
176
     1
 90
       50
176
     1
290
     0
176
     1
 90
       50
176
     1
 62
   256
176
     0
 40
1.0
176
     0
 90
        2
176
     1
  1
strokes_ogs.tif
176
     1
290
     0
176
     1
 40
1.0
176
     1
 40
1.0
176
     1
  0
VISUALSTYLE
  5
9C
102
{ACAD_REACTORS
330
99
102
}
330
99
100
AcDbVisualStyle
  2
Gouraud
 70
     2
177
     3
291
     1
 70
    58
 90
        2
176
     1
 90
        2
176
     1
 90
        1
176
     1
 90
        2
176
     1
 40
0.6
176
     1
 40
30.0
176
     1
 62
     7
420
 16777215
176
     1
 90
        0
176
     1
 90
        0
176
     1
 62
     7
176
     1
 62
   257
176
     1
 90
        1
176
     1
 90
        1
176
     1
 40
1.0
176
     1
 90
        0
176
     1
 62
     7
176
     1
 40
1.0
176
     1
 90
        1
176
     1
 90
        6
176
     1
 90
        2
176
     1
 62
     7
176
     1
 90
        5
176
     1
 90
        0
176
     1
 90
        0
176
     1
290
     0
176
     1
 90
       13
176
     1
 40
0.0
176
     1
 90
        0
176
     1
290
     0
176
     1
290
     1
176
     1
290
     1
176
     1
290
     0
176
     1
290
     0
176
     1
290
     0
176
     1
290
     0
176
     1
290
     0
176
     1
290
     0
176
     1
 90
       50
176
     1
 40
0.0
176
     1
 40
1.0
176
     1
 90
        0
176
     1
 62
    18
420
        0
176
     1
 90
       50
176
     1
 90
        3
176
     1
 62
     5
420
      255
176
     1
290
     0
176
     1
 90
       50
176
     1
 90
       50
176
     1
 90
       50
176
     1
290
     0
176
     1
 90
       50
176
     1
 62
   256
176
     0
 40
1.0
176
     0
 90
        2
176
     1
  1
strokes_ogs.tif
176
     1
290
     0
176
     1
 40
1.0
176
     1
 40
1.0
176
     1
  0
VISUALSTYLE
  5
9D
102
{ACAD_REACTORS
330
99
102
}
330
99
100
AcDbVisualStyle
  2
GouraudWithEdges
 70
     3
177
     3
291
     1
 70
    58
 90
        2
176
     1
 90
        2
176
     1
 90
        1
176
     1
 90
        2
176
     1
 40
0.6
176
     1
 40
30.0
176
     1
 62
     7
420
 16777215
176
     1
 90
        1
176
     1
 90
        0
176
     1
 62
     7
176
     1
 62
   257
176
     1
 90
        1
176
     1
 90
        1
176
     1
 40
1.0
176
     1
 90
        0
176
     1
 62
   257
176
     1
 40
1.0
176
     1
 90
        1
176
     1
 90
        6
176
     1
 90
        2
176
     1
 62
     7
176
     1
 90
        5
176
     1
 90
        0
176
     1
 90
        0
176
     1
290
     0
176
     1
 90
       13
176
     1
 40
0.0
176
     1
 90
        0
176
     1
290
     0
176
     1
290
     1
176
     1
290
     1
176
     1
290
     0
176
     1
290
     0
176
     1
290
     0
176
     1
290
     0
176
     1
290
     0
176
     1
290
     0
176
     1
 90
       50
176
     1
 40
0.0
176
     1
 40
1.0
176
     1
 90
        0
176
     1
 62
    18
420
        0
176
     1
 90
       50
176
     1
 90
        3
176
     1
 62
     5
420
      255
176
     1
290
     0
176
     1
 90
       50
176
     1
 90
       50
176
     1
 90
       50
176
     1
290
     0
176
     1
 90
       50
176
     1
 62
   256
176
     0
 40
1.0
176
     0
 90
        2
176
     1
  1
strokes_ogs.tif
176
     1
290
     0
176
     1
 40
1.0
176
     1
 40
1.0
176
     1
  0
VISUALSTYLE
  5
A1
102
{ACAD_REACTORS
330
99
102
}
330
99
100
AcDbVisualStyle
  2
Hidden
 70
     6
177
     3
291
     0
 70
    58
 90
        1
176
     1
 90
        2
176
     1
 90
        2
176
     1
 90
        0
176
     1
 40
0.6
176
     1
 40
30.0
176
     1
 62
     7
420
 16777215
176
     1
 90
        2
176
     1
 90
        2
176
     1
 62
     7
176
     1
 62
   257
176
     1
 90
        2
176
     1
 90
        1
176
     1
 40
40.0
176
     1
 90
        0
176
     1
 62
   257
176
     1
 40
1.0
176
     1
 90
        1
176
     1
 90
        6
176
     1
 90
        2
176
     1
 62
     7
176
     1
 90
        3
176
     1
 90
        0
176
     1
 90
        0
176
     1
290
     0
176
     1
 90
        1
176
     1
 40
0.0
176
     1
 90
        0
176
     1
290
     0
176
     1
290
     1
176
     1
290
     1
176
     1
290
     0
176
     1
290
     0
176
     1
290
     0
176
     1
290
     0
176
     1
290
     0
176
     1
290
     0
176
     1
 90
       50
176
     1
 40
0.0
176
     1
 40
1.0
176
     1
 90
        0
176
     1
 62
    18
420
        0
176
     1
 90
       50
176
     1
 90
        3
176
     1
 62
     5
420
      255
176
     1
290
     0
176
     1
 90
       50
176
     1
 90
       50
176
     1
 90
       50
176
     1
290
     0
176
     1
 90
       50
176
     1
 62
   256
176
     0
 40
1.0
176
     0
 90
        2
176
     1
  1
strokes_ogs.tif
176
     1
290
     0
176
     1
 40
1.0
176
     1
 40
1.0
176
     1
  0
VISUALSTYLE
  5
173
102
{ACAD_REACTORS
330
99
102
}
330
99
100
AcDbVisualStyle
  2
JitterOff
 70
    20
177
     3
291
     1
 70
    58
 90
        2
176
     0
 90
        2
176
     0
 90
        0
176
     0
 90
        0
176
     0
 40
0.6
176
     0
 40
30.0
176
     0
 62
     7
420
 16777215
176
     0
 90
        1
176
     0
 90
        4
176
     0
 62
     7
176
     0
 62
   257
176
     0
 90
        1
176
     0
 90
        1
176
     0
 40
1.0
176
     0
 90
       10
176
     2
 62
     7
176
     0
 40
1.0
176
     0
 90
        1
176
     0
 90
        6
176
     0
 90
        2
176
     0
 62
     7
176
     0
 90
        5
176
     0
 90
        0
176
     0
 90
        0
176
     0
290
     0
176
     0
 90
        1
176
     0
 40
0.0
176
     0
 90
        0
176
     0
290
     0
176
     1
290
     1
176
     1
290
     1
176
     1
290
     0
176
     1
290
     0
176
     1
290
     0
176
     1
290
     0
176
     1
290
     0
176
     1
290
     0
176
     1
 90
       50
176
     1
 40
0.0
176
     1
 40
1.0
176
     1
 90
        0
176
     1
 62
    18
420
        0
176
     1
 90
       50
176
     1
 90
        3
176
     1
 62
     5
420
      255
176
     1
290
     0
176
     1
 90
       50
176
     1
 90
       50
176
     1
 90
       50
176
     1
290
     0
176
     1
 90
       50
176
     1
 62
   256
176
     0
 40
1.0
176
     0
 90
        2
176
     1
  1
strokes_ogs.tif
176
     1
290
     0
176
     1
 40
1.0
176
     1
 40
1.0
176
     1
  0
VISUALSTYLE
  5
A7
102
{ACAD_REACTORS
330
99
102
}
330
99
100
AcDbVisualStyle
  2
Linepattern
 70
    14
177
     3
291
     1
 70
    58
 90
        2
176
     1
 90
        2
176
     1
 90
        1
176
     1
 90
        0
176
     1
 40
0.6
176
     1
 40
30.0
176
     1
 62
     7
420
 16777215
176
     1
 90
        1
176
     1
 90
        4
176
     1
 62
     7
176
     1
 62
   257
176
     1
 90
        7
176
     1
 90
        7
176
     1
 40
1.0
176
     1
 90
        8
176
     1
 62
     7
176
     1
 40
1.0
176
     1
 90
        1
176
     1
 90
        6
176
     1
 90
        2
176
     1
 62
     7
176
     1
 90
        5
176
     1
 90
        0
176
     1
 90
        0
176
     1
290
     0
176
     1
 90
        1
176
     1
 40
0.0
176
     1
 90
        0
176
     1
290
     0
176
     1
290
     1
176
     1
290
     1
176
     1
290
     0
176
     1
290
     0
176
     1
290
     0
176
     1
290
     0
176
     1
290
     0
176
     1
290
     0
176
     1
 90
       50
176
     1
 40
0.0
176
     1
 40
1.0
176
     1
 90
        0
176
     1
 62
    18
420
        0
176
     1
 90
       50
176
     1
 90
        3
176
     1
 62
     5
420
      255
176
     1
290
     0
176
     1
 90
       50
176
     1
 90
       50
176
     1
 90
       50
176
     1
290
     0
176
     1
 90
       50
176
     1
 62
   256
176
     0
 40
1.0
176
     0
 90
        2
176
     1
  1
strokes_ogs.tif
176
     1
290
     0
176
     1
 40
1.0
176
     1
 40
1.0
176
     1
  0
VISUALSTYLE
  5
174
102
{ACAD_REACTORS
330
99
102
}
330
99
100
AcDbVisualStyle
  2
OverhangOff
 70
    21
177
     3
291
     1
 70
    58
 90
        2
176
     0
 90
        2
176
     0
 90
        0
176
     0
 90
        0
176
     0
 40
0.6
176
     0
 40
30.0
176
     0
 62
     7
420
 16777215
176
     0
 90
        1
176
     0
 90
        4
176
     0
 62
     7
176
     0
 62
   257
176
     0
 90
        1
176
     0
 90
        1
176
     0
 40
1.0
176
     0
 90
        9
176
     2
 62
     7
176
     0
 40
1.0
176
     0
 90
        1
176
     0
 90
        6
176
     0
 90
        2
176
     0
 62
     7
176
     0
 90
        5
176
     0
 90
        0
176
     0
 90
        0
176
     0
290
     0
176
     0
 90
        1
176
     0
 40
0.0
176
     0
 90
        0
176
     0
290
     0
176
     1
290
     1
176
     1
290
     1
176
     1
290
     0
176
     1
290
     0
176
     1
290
     0
176
     1
290
     0
176
     1
290
     0
176
     1
290
     0
176
     1
 90
       50
176
     1
 40
0.0
176
     1
 40
1.0
176
     1
 90
        0
176
     1
 62
    18
420
        0
176
     1
 90
       50
176
     1
 90
        3
176
     1
 62
     5
420
      255
176
     1
290
     0
176
     1
 90
       50
176
     1
 90
       50
176
     1
 90
       50
176
     1
290
     0
176
     1
 90
       50
176
     1
 62
   256
176
     0
 40
1.0
176
     0
 90
        2
176
     1
  1
strokes_ogs.tif
176
     1
290
     0
176
     1
 40
1.0
176
     1
 40
1.0
176
     1
  0
VISUALSTYLE
  5
A3
102
{ACAD_REACTORS
330
99
102
}
330
99
100
AcDbVisualStyle
  2
Realistic
 70
     8
177
     3
291
     0
 70
    58
 90
        2
176
     1
 90
        3
176
     1
 90
        0
176
     1
 90
        2
176
     1
 40
0.6
176
     1
 40
30.0
176
     1
 62
     7
420
 16777215
176
     1
 90
        0
176
     1
 90
        0
176
     1
 62
     7
176
     1
 62
   257
176
     1
 90
        1
176
     1
 90
        1
176
     1
 40
1.0
176
     1
 90
        8
176
     1
 62
   257
176
     1
 40
1.0
176
     1
 90
        1
176
     1
 90
        6
176
     1
 90
        2
176
     1
 62
     7
176
     1
 90
        3
176
     1
 90
        0
176
     1
 90
        0
176
     1
290
     0
176
     1
 90
       13
176
     1
 40
0.0
176
     1
 90
        0
176
     1
290
     0
176
     1
290
     1
176
     1
290
     1
176
     1
290
     0
176
     1
290
     0
176
     1
290
     0
176
     1
290
     0
176
     1
290
     0
176
     1
290
     0
176
     1
 90
       50
176
     1
 40
0.0
176
     1
 40
1.0
176
     1
 90
        0
176
     1
 62
    18
420
        0
176
     1
 90
       50
176
     1
 90
        3
176
     1
 62
     5
420
      255
176
     1
290
     0
176
     1
 90
       50
176
     1
 90
       50
176
     1
 90
       50
176
     1
290
     0
176
     1
 90
       50
176
     1
 62
   256
176
     0
 40
1.0
176
     0
 90
        2
176
     1
  1
strokes_ogs.tif
176
     1
290
     0
176
     1
 40
1.0
176
     1
 40
1.0
176
     1
  0
VISUALSTYLE
  5
182
102
{ACAD_REACTORS
330
99
102
}
330
99
100
AcDbVisualStyle
  2
Shaded
 70
    27
177
     3
291
     0
 70
    58
 90
        2
176
     1
 90
        2
176
     1
 90
        1
176
     1
 90
        2
176
     1
 40
0.6
176
     1
 40
30.0
176
     1
 62
     7
420
 16777215
176
     1
 90
        0
176
     1
 90
        4
176
     1
 62
     7
176
     1
 62
   257
176
     1
 90
        1
176
     1
 90
        1
176
     1
 40
1.0
176
     1
 90
        8
176
     1
 62
   257
176
     1
 40
1.0
176
     1
 90
        1
176
     1
 90
        6
176
     1
 90
        2
176
     1
 62
     8
420
  7895160
176
     1
 90
        3
176
     1
 90
        0
176
     1
 90
        0
176
     1
290
     0
176
     1
 90
        5
176
     1
 40
0.0
176
     1
 90
        0
176
     1
290
     0
176
     1
290
     1
176
     1
290
     1
176
     1
290
     0
176
     1
290
     0
176
     1
290
     0
176
     1
290
     0
176
     1
290
     0
176
     1
290
     0
176
     1
 90
       50
176
     1
 40
0.0
176
     1
 40
1.0
176
     1
 90
        0
176
     1
 62
    18
420
        0
176
     1
 90
       50
176
     1
 90
        3
176
     1
 62
     5
420
      255
176
     1
290
     0
176
     1
 90
       50
176
     1
 90
       50
176
     1
 90
       50
176
     1
290
     0
176
     1
 90
       50
176
     1
 62
   256
176
     0
 40
1.0
176
     0
 90
        2
176
     1
  1
strokes_ogs.tif
176
     1
290
     0
176
     1
 40
1.0
176
     1
 40
1.0
176
     1
  0
VISUALSTYLE
  5
181
102
{ACAD_REACTORS
330
99
102
}
330
99
100
AcDbVisualStyle
  2
Shaded with edges
 70
    26
177
     3
291
     0
 70
    58
 90
        2
176
     1
 90
        2
176
     1
 90
        1
176
     1
 90
        2
176
     1
 40
0.6
176
     1
 40
30.0
176
     1
 62
     7
420
 16777215
176
     1
 90
        1
176
     1
 90
        2
176
     1
 62
     7
176
     1
 62
   257
176
     1
 90
        2
176
     1
 90
        1
176
     1
 40
1.0
176
     1
 90
        8
176
     1
 62
   257
176
     1
 40
1.0
176
     1
 90
        1
176
     1
 90
        6
176
     1
 90
        2
176
     1
 62
     7
176
     1
 90
        3
176
     1
 90
        0
176
     1
 90
        0
176
     1
290
     0
176
     1
 90
        5
176
     1
 40
0.0
176
     1
 90
        0
176
     1
290
     0
176
     1
290
     1
176
     1
290
     1
176
     1
290
     0
176
     1
290
     0
176
     1
290
     0
176
     1
290
     0
176
     1
290
     0
176
     1
290
     0
176
     1
 90
       50
176
     1
 40
0.0
176
     1
 40
1.0
176
     1
 90
        0
176
     1
 62
    18
420
        0
176
     1
 90
       50
176
     1
 90
        3
176
     1
 62
     5
420
      255
176
     1
290
     0
176
     1
 90
       50
176
     1
 90
       50
176
     1
 90
       50
176
     1
290
     0
176
     1
 90
       50
176
     1
 62
   256
176
     0
 40
1.0
176
     0
 90
        2
176
     1
  1
strokes_ogs.tif
176
     1
290
     0
176
     1
 40
1.0
176
     1
 40
1.0
176
     1
  0
VISUALSTYLE
  5
17E
102
{ACAD_REACTORS
330
99
102
}
330
99
100
AcDbVisualStyle
  2
Shades of Gray
 70
    23
177
     3
291
     0
 70
    58
 90
        2
176
     1
 90
        2
176
     1
 90
        3
176
     1
 90
        0
176
     1
 40
0.6
176
     1
 40
30.0
176
     1
 62
     7
420
 16777215
176
     1
 90
        2
176
     1
 90
        2
176
     1
 62
     7
176
     1
 62
     7
176
     1
 90
        1
176
     1
 90
        1
176
     1
 40
40.0
176
     1
 90
        8
176
     1
 62
     7
176
     1
 40
1.0
176
     1
 90
        1
176
     1
 90
        6
176
     1
 90
        2
176
     1
 62
     7
176
     1
 90
        3
176
     1
 90
        0
176
     1
 90
        0
176
     1
290
     0
176
     1
 90
        1
176
     1
 40
0.0
176
     1
 90
        0
176
     1
290
     0
176
     1
290
     1
176
     1
290
     1
176
     1
290
     0
176
     1
290
     0
176
     1
290
     0
176
     1
290
     0
176
     1
290
     0
176
     1
290
     0
176
     1
 90
       50
176
     1
 40
0.0
176
     1
 40
1.0
176
     1
 90
        0
176
     1
 62
    18
420
        0
176
     1
 90
       50
176
     1
 90
        3
176
     1
 62
     5
420
      255
176
     1
290
     0
176
     1
 90
       50
176
     1
 90
       50
176
     1
 90
       50
176
     1
290
     0
176
     1
 90
       50
176
     1
 62
   256
176
     0
 40
1.0
176
     0
 90
        2
176
     1
  1
strokes_ogs.tif
176
     1
290
     0
176
     1
 40
1.0
176
     1
 40
1.0
176
     1
  0
VISUALSTYLE
  5
17F
102
{ACAD_REACTORS
330
99
102
}
330
99
100
AcDbVisualStyle
  2
Sketchy
 70
    24
177
     3
291
     0
 70
    58
 90
        1
176
     1
 90
        2
176
     1
 90
        2
176
     1
 90
        0
176
     1
 40
0.6
176
     1
 40
30.0
176
     1
 62
     7
420
 16777215
176
     1
 90
        2
176
     1
 90
        2
176
     1
 62
     7
176
     1
 62
     7
176
     1
 90
        1
176
     1
 90
        1
176
     1
 40
40.0
176
     1
 90
       11
176
     1
 62
     7
176
     1
 40
1.0
176
     1
 90
        1
176
     1
 90
        6
176
     1
 90
        2
176
     1
 62
     7
176
     1
 90
        6
176
     1
 90
        0
176
     1
 90
        0
176
     1
290
     0
176
     1
 90
        1
176
     1
 40
0.0
176
     1
 90
        0
176
     1
290
     0
176
     1
290
     1
176
     1
290
     1
176
     1
290
     0
176
     1
290
     0
176
     1
290
     0
176
     1
290
     0
176
     1
290
     0
176
     1
290
     0
176
     1
 90
       50
176
     1
 40
0.0
176
     1
 40
1.0
176
     1
 90
        0
176
     1
 62
    18
420
        0
176
     1
 90
       50
176
     1
 90
        3
176
     1
 62
     5
420
      255
176
     1
290
     0
176
     1
 90
       50
176
     1
 90
       50
176
     1
 90
       50
176
     1
290
     0
176
     1
 90
       50
176
     1
 62
   256
176
     0
 40
1.0
176
     0
 90
        2
176
     1
  1
strokes_ogs.tif
176
     1
290
     0
176
     1
 40
1.0
176
     1
 40
1.0
176
     1
  0
VISUALSTYLE
  5
A6
102
{ACAD_REACTORS
330
99
102
}
330
99
100
AcDbVisualStyle
  2
Thicken
 70
    13
177
     3
291
     1
 70
    58
 90
        2
176
     1
 90
        2
176
     1
 90
        1
176
     1
 90
        0
176
     1
 40
0.6
176
     1
 40
30.0
176
     1
 62
     7
420
 16777215
176
     1
 90
        1
176
     1
 90
        4
176
     1
 62
     7
176
     1
 62
   257
176
     1
 90
        1
176
     1
 90
        1
176
     1
 40
1.0
176
     1
 90
       12
176
     1
 62
     7
176
     1
 40
1.0
176
     1
 90
        1
176
     1
 90
        6
176
     1
 90
        2
176
     1
 62
     7
176
     1
 90
        5
176
     1
 90
        0
176
     1
 90
        0
176
     1
290
     0
176
     1
 90
        1
176
     1
 40
0.0
176
     1
 90
        0
176
     1
290
     0
176
     1
290
     1
176
     1
290
     1
176
     1
290
     0
176
     1
290
     0
176
     1
290
     0
176
     1
290
     0
176
     1
290
     0
176
     1
290
     0
176
     1
 90
       50
176
     1
 40
0.0
176
     1
 40
1.0
176
     1
 90
        0
176
     1
 62
    18
420
        0
176
     1
 90
       50
176
     1
 90
        3
176
     1
 62
     5
420
      255
176
     1
290
     0
176
     1
 90
       50
176
     1
 90
       50
176
     1
 90
       50
176
     1
290
     0
176
     1
 90
       50
176
     1
 62
   256
176
     0
 40
1.0
176
     0
 90
        2
176
     1
  1
strokes_ogs.tif
176
     1
290
     0
176
     1
 40
1.0
176
     1
 40
1.0
176
     1
  0
VISUALSTYLE
  5
A0
102
{ACAD_REACTORS
330
99
102
}
330
99
100
AcDbVisualStyle
  2
Wireframe
 70
     5
177
     3
291
     0
 70
    58
 90
        0
176
     1
 90
        2
176
     1
 90
        0
176
     1
 90
        0
176
     1
 40
0.6
176
     1
 40
30.0
176
     1
 62
     7
420
 16777215
176
     1
 90
        1
176
     1
 90
        4
176
     1
 62
     7
176
     1
 62
   257
176
     1
 90
        1
176
     1
 90
        1
176
     1
 40
1.0
176
     1
 90
        0
176
     1
 62
   257
176
     1
 40
1.0
176
     1
 90
        1
176
     1
 90
        6
176
     1
 90
        2
176
     1
 62
     7
176
     1
 90
        3
176
     1
 90
        0
176
     1
 90
        0
176
     1
290
     0
176
     1
 90
        1
176
     1
 40
0.0
176
     1
 90
        0
176
     1
290
     0
176
     1
290
     1
176
     1
290
     1
176
     1
290
     0
176
     1
290
     0
176
     1
290
     0
176
     1
290
     0
176
     1
290
     0
176
     1
290
     0
176
     1
 90
       50
176
     1
 40
0.0
176
     1
 40
1.0
176
     1
 90
        0
176
     1
 62
    18
420
        0
176
     1
 90
       50
176
     1
 90
        3
176
     1
 62
     5
420
      255
176
     1
290
     0
176
     1
 90
       50
176
     1
 90
       50
176
     1
 90
       50
176
     1
290
     0
176
     1
 90
       50
176
     1
 62
   256
176
     0
 40
1.0
176
     0
 90
        2
176
     1
  1
strokes_ogs.tif
176
     1
290
     0
176
     1
 40
1.0
176
     1
 40
1.0
176
     1
  0
VISUALSTYLE
  5
180
102
{ACAD_REACTORS
330
99
102
}
330
99
100
AcDbVisualStyle
  2
X-Ray
 70
    25
177
     3
291
     0
 70
    58
 90
        2
176
     1
 90
        2
176
     1
 90
        1
176
     1
 90
        1
176
     1
 40
0.5
176
     1
 40
30.0
176
     1
 62
     7
420
 16777215
176
     1
 90
        1
176
     1
 90
        0
176
     1
 62
     7
176
     1
 62
   257
176
     1
 90
        1
176
     1
 90
        1
176
     1
 40
1.0
176
     1
 90
        8
176
     1
 62
     7
176
     1
 40
1.0
176
     1
 90
        1
176
     1
 90
        6
176
     1
 90
        2
176
     1
 62
     7
176
     1
 90
        3
176
     1
 90
        0
176
     1
 90
        0
176
     1
290
     0
176
     1
 90
       13
176
     1
 40
0.0
176
     1
 90
        0
176
     1
290
     0
176
     1
290
     1
176
     1
290
     1
176
     1
290
     0
176
     1
290
     0
176
     1
290
     0
176
     1
290
     0
176
     1
290
     0
176
     1
290
     0
176
     1
 90
       50
176
     1
 40
0.0
176
     1
 40
1.0
176
     1
 90
        0
176
     1
 62
    18
420
        0
176
     1
 90
       50
176
     1
 90
        3
176
     1
 62
     5
420
      255
176
     1
290
     0
176
     1
 90
       50
176
     1
 90
       50
176
     1
 90
       50
176
     1
290
     0
176
     1
 90
       50
176
     1
 62
   256
176
     0
 40
1.0
176
     0
 90
        2
176
     1
  1
strokes_ogs.tif
176
     1
290
     0
176
     1
 40
1.0
176
     1
 40
1.0
176
     1
  0
DICTIONARYVAR
  5
F0
102
{ACAD_REACTORS
330
66
102
}
330
66
100
DictionaryVariables
280
     0
  1
1:1
  0
DICTIONARYVAR
  5
EF
102
{ACAD_REACTORS
330
66
102
}
330
66
100
DictionaryVariables
280
     0
  1
STANDARD
  0
DICTIONARYVAR
  5
89
102
{ACAD_REACTORS
330
66
102
}
330
66
100
DictionaryVariables
280
     0
  1
STANDARD
  0
DICTIONARYVAR
  5
1B7
102
{ACAD_REACTORS
330
66
102
}
330
66
100
DictionaryVariables
280
     0
  1
ASME Y14.35 - 1987
  0
DICTIONARYVAR
  5
1B8
102
{ACAD_REACTORS
330
66
102
}
330
66
100
DictionaryVariables
280
     0
  1
ASME Y14.3 - 2003
  0
DICTIONARYVAR
  5
67
102
{ACAD_REACTORS
330
66
102
}
330
66
100
DictionaryVariables
280
     0
  1
2
  0
DICTIONARYVAR
  5
A9C
102
{ACAD_REACTORS
330
66
102
}
330
66
100
DictionaryVariables
280
     0
  1
4
  0
DICTIONARYVAR
  5
6B
102
{ACAD_REACTORS
330
66
102
}
330
66
100
DictionaryVariables
280
     0
  1
1
  0
DICTIONARYVAR
  5
14D
102
{ACAD_REACTORS
330
66
102
}
330
66
100
DictionaryVariables
280
     0
  1
0
  0
DICTIONARYVAR
  5
14E
102
{ACAD_REACTORS
330
66
102
}
330
66
100
DictionaryVariables
280
     0
  1
0
  0
ACAD_PROXY_OBJECT
  5
23B
102
{ACAD_REACTORS
330
23A
102
}
330
23A
100
AcDbProxyObject
 90
      499
 91
      541
 71
    33
 97
      157
 70
     0
162
                 0
161
                84
310
90100057356C1DCF406AAC
 94
        0
  0
DICTIONARY
  5
23C
102
{ACAD_REACTORS
330
23A
102
}
330
23A
100
AcDbDictionary
281
     1
  3
ANSI
350
23D
  0
ACAD_PROXY_OBJECT
  5
218
330
0
100
AcDbProxyObject
 90
      499
 91
      522
 71
    33
 97
      157
 70
     0
162
               234
311
43904010C01340114014C016401340108013C0130014C01240168011400C
161
                34
310
000101420C
330
215
 94
        0
  0
ACAD_PROXY_OBJECT
  5
228
330
0
100
AcDbProxyObject
 90
      499
 91
      533
 71
    33
 97
      157
 70
     0
162
               212
311
421040134010C01540148014C01500110010441004E0053004900C
161
                32
310
0001010100
330
215
 94
        0
  0
ACAD_PROXY_OBJECT
  5
22B
330
0
100
AcDbProxyObject
 90
      499
 91
      533
 71
    33
 97
      157
 70
     0
162
               276
311
431040104010C013C01340140011001180138010401340114010443004F004D005000C
161
                32
310
0001010100
330
215
 94
        0
  0
ACAD_PROXY_OBJECT
  5
22C
330
0
100
AcDbProxyObject
 90
      499
 91
      533
 71
    33
 97
      157
 70
     0
162
               340
311
4390401040118013C0130011001140148011001180138010401340114010646006F006C00640065007200C
161
                32
310
0001010100
330
215
 94
        0
  0
ACAD_PROXY_OBJECT
  5
22D
330
0
100
AcDbProxyObject
 90
      499
 91
      533
 71
    33
 97
      157
 70
     0
162
               260
311
431040104010401380138013C01100118013801040134011401035F0041005600C
161
                32
310
0001010100
330
215
 94
        0
  0
ACAD_PROXY_OBJECT
  5
22E
330
0
100
AcDbProxyObject
 90
      499
 91
      533
 71
    33
 97
      157
 70
     0
162
               756
311
439040104010C013C01340140015801240114015C01300124014C0150012054006F0070000A00460072006F006E0074000A00520069006700680074000A004C006500660074000A0042006F00740074006F006D000A004100750078003100C
161
                32
310
0001010100
330
215
 94
        0
  0
ACAD_PROXY_OBJECT
  5
22F
330
0
100
AcDbProxyObject
 90
      499
 91
      522
 71
    33
 97
      157
 70
     0
162
               234
311
439040134014C014C0150014801040130015C01040164014C013C013800C
161
                26
310
0001018C
330
215
 94
        0
  0
ACAD_PROXY_OBJECT
  5
234
330
0
100
AcDbProxyObject
 90
      499
 91
      536
 71
    33
 97
      157
 70
     0
162
                 0
161
                32
310
0001000000
330
215
340
231
330
235
330
231
 94
        0
  0
ACAD_PROXY_OBJECT
  5
235
330
0
100
AcDbProxyObject
 90
      499
 91
      537
 71
    33
 97
      157
 70
     0
162
               282
311
4455C0104013001300080015C008001240138014C01540130010401500124013C013800C
161
                80
310
0001014140155005540005
330
215
330
234
330
0
 94
        0
  0
ACAD_PROXY_OBJECT
  5
236
330
0
100
AcDbProxyObject
 90
      499
 91
      538
 71
    33
 97
      157
 70
     0
162
                 0
161
               178
310
000100AAAAAAADBD32A2C76A4811A2F629029E726F78CC
330
215
330
235
 94
        0
  0
ACAD_PROXY_OBJECT
  5
237
330
0
100
AcDbProxyObject
 90
      499
 91
      539
 71
    33
 97
      157
 70
     0
162
                 0
161
               108
310
000190140A000000000000AAAAAC
330
215
330
238
330
238
330
238
330
238
330
238
330
0
 94
        0
  0
ACAD_PROXY_OBJECT
  5
238
330
0
100
AcDbProxyObject
 90
      499
 91
      540
 71
    33
 97
      157
 70
     0
162
                 0
161
                51
310
00010000AAAA8C
330
215
330
237
330
235
 94
        0
  0
DICTIONARY
  5
20F
102
{ACAD_REACTORS
330
20E
102
}
330
20E
100
AcDbDictionary
281
     1
  3
DWGSETTINGS
350
210
  3
Shaft
350
3D9
  3
TRANSSETTINGS
350
211
  0
ACAD_PROXY_OBJECT
  5
24F
102
{ACAD_REACTORS
330
20E
102
}
330
20E
100
AcDbProxyObject
 90
      499
 91
      558
 71
    33
 97
      157
 70
     0
162
             17838
311
404C0010441004D005F0030009013100411040134017C00C402404C8010441004D005F0032009013300411040134017C00CC02404D0010441004D005F0034009013500411040134017C00D402404D8010441004D005F0036009013700411040134017C00DC02404E0010441004D005F0038009013900411040134017C00E40
311
2408C80104010541004D005F003100300090234004100415040134017C00C400C402409240140010541004D005F003100320090230004E00415040134017C00C0013802408C40138010541004D005F0031004E0090232004E00415040134017C00C8013802408CC0138010541004D005F0033004E0090234004E0041504013
311
4017C00D0013802408D40138010541004D005F0035004E0090236004E00415040134017C00D8013802408DC0138010541004D005F0037004E0090238004E00415040134017C00E0013802408E40138010541004D005F0039004E00903320041004E00419040134017C00C400C001380240CD001040138010641004D005F003
311
10031004E00903490050004E00419040134017C00C400C80138024112C013001240138010541004D005F0043004C0090449004E0046004F00421040134017C01400104014801140118024154801040120013400D4010641004D005F0042004F0052009045600490045005700421040134017C015801240114015C014C02419
311
0801140120012401380110010641004D005F0049004E00560090554005200410049004C00415040134017C015001480240D2001240110010641004D005F00480049004400903560049005300419040134017C01580124014C024194001040148011001240134010941004D005F00500041005200440049004D009065200450
311
04600440049004D00425040134017C01480114011801100124013402430F401D001A401D001B001940080018801B001BC018C01AC010B7400690074006C006500200062006C006F0063006B009083D00610064006400720065007300730041D840190019001C8019401CC01CC02418F401B001BC019C01BC01CC01056C006F
311
0067006F0073009073D0042004F00520044004500520041908013C014801100114014802424F4015801240114015C0140013C014801500108560049004500570050004F005200540090A3D00760069006500770070006F00720074007300425D801A4019401DC01C001BC01C801D001CC02418F401CC018C018401B0019401
311
057300630061006C006500904420048004E005600404E40105420048004E00560053004190801140120012401380110010442004F00520032004154801040120013400D4010442004F00520033004154801040120013400D4010442004F00520035004154801040120013400D40104430041004C003200404D001044300410
311
04C003300404D00104430041004C003500404D00104430041004C003700404D00104430045004E004E00404DC0104430045004E005700404DC010443004C0049004E004112C013001240138010443004F004E003100404C0010443004F004E003200404C4010443004F004E003300404C8010443004F004E003400404C8010
311
44400450054004100404D001044400490041004700404D40104440049004C004900404D40104440049004D00500041940010401480110012401340104440049004D00520041948011401180110012401340104460045004D004E00404E00105460045004D0050004E00404E00105460045004D0053005000408D0010401054
311
60045004D0053005400408D001040105460045004D0056004E00404C80105460045004D0056005400404C801044800410054004300404E001044800490044004E00404CC01044800490044005700404CC010448004C0049004E00404D0010448004F0043004E00404DC010448004F0043005700404DC010449004E0046004F
311
004112401380118013C01044C00450041004400404D401064E005F00420048004E005600408E4013801064E005F0043004F004E003100408C0013801064E005F0043004F004E003200408C4013801064E005F0043004F004E003300408C8013801064E005F0043004F004E003400408C8013801064E005F00430045004E004
311
E00408DC013801064E005F00430045004E005700408DC013801064E005F00440049004C004900408D4013801064E005F004800410054004300408E0013801064E005F004800490044004E00408CC013801064E005F004800490044005700408CC013801064E005F004C00450041004400408D4013801064E005F004E004700
311
4900500040D240140013801064E005F005000480041004E0040CD00104013801064E005F00540043004F004E00408C0013801064E005F00540048004C004900408D0013801064E005F0054004C0045004E00408C0013801064E005F00560050004C00490040CC80104013801044E0047004900500040924014001045000410
311
04C0032004154801040120013400D40104500041004C0033004154801040120013400D40104500041004C0035004154801040120013400D401045000480041004E00408D00104010450004F0053004E00404D401045200430047004E00404DC01045200430047005700404DC01045300420052004B00404D00104530045004
311
3005400404D001045300590042003300404D401044D00530059004D00404D40104540043004F004E00404C00104540048004C004900404D0010454004900540032004154801040120013400D4010454004900540033004154801040120013400D4010454004900540035004154801040120013400D4010454004C0045004E0
311
0404C0010554005200410049004C004155001480104012401300104540052004C004900404D001045400580054003100404D801045400580054003200404D801045400580054003300404D801045400580054003500404D801045400580054003700404D8010456004900450057004115801240114015C0104560045004400
311
480040D20012401100104560045004400560040D580124014C0104560050004C004900408C8010401045A0049005A004100404D00104530050004C004900408C8010401013F008
161
              9460
310
425034AE01C00030C011E5C203800030C011E5C201400030C011E5C201800030C010FA00C00030C010FA00C00030C010FA00800030C011EA01000030C010FA00400030C010FA3F400030C0241201C00030C011EA00C00030C010FA01C00030C011E40A01C00030C011EA03800030C011EA01400030C011EA01800030C010FA
310
00C00030C010FA00C00030C010FA00800030C011EA01000030C010FA00400030C010FA3F400030C0241201C00030C011EA00C00030C010FA01C00030C011E40A00400030C010F42601000030C010F42E01C00030C011E42600400030C010F42E3F400030C0243600C00030C010F42601C00030C010F42601C00030C011E426
310
00C00030C010F42601000030C010F42600400030C010FA3E800030C00FDFFFFFFA3FC00030C00FDFFFFFFA3EC00030C00FDFFFFFFA01C00030C011E40A01C00030C011E40A01C00030C00FDFFFFFF409548000000C0003FFFFFFFE8000000C0003FFFFFFFE8010000C30043E8020000C30047A8000000C0003FFFFFFFE8000
310
000C0003FFFFFFFE8020000C30047A8070000C30047A81E0000C3004F28000000C0003FFFFFFFE8000000C0003FFFFFFFE8000000C0003FFFFFFFE8000000C0003FFFFFFFD038000000C0003FFFFFFFD038000000C0003FFFFFFFD038000000C0003FFFFFFFD038030000C30043E8000000C0003FFFFFFFE8000000C0003FF
310
FFFFFE8000000C0003FFFFFFFE8000000C0003FFFFFFFE8000000C0003FFFFFFFE8030000C3003FFFFFFFE8000000C0003FFFFFFFE8030000C30043E8000000C0003FFFFFFFE8030000C30043E8000000C0003FFFFFFFD018000000C0003FFFFFFFD038000000C0003FFFFFFFD038000000C0003FFFFFFFD018000000C0003
310
FFFFFFFE8000000C0003FFFFFFFE8000000C0003FFFFFFFE8000000C0003FFFFFFFE8000000C0003FFFFFFFE8000000C0003FFFFFFFD038000000C0003FFFFFFFD038000000C0003FFFFFFFD038000000C0003FFFFFFFD038000000C0003FFFFFFFE8000000C0003FFFFFFFE8000000C0003FFFFFFFE8000000C0003FFFFFF
310
FD018000000C0003FFFFFFFD038000000C0003FFFFFFFD038000000C0003FFFFFFFE8000000C0003FFFFFFFE8000000C0003FFFFFFFE8000000C0003FFFFFFFD038000000C0003FFFFFFFD018000000C0003FFFFFFFD038000000C0003FFFFFFFE8000000C0003FFFFFFFE8010000C3003FFFFFFFE8020000C3003FFFFFFFE
310
8070000C3003FFFFFFFE8000000C0003FFFFFFFE8000000C0003FFFFFFFE8000000C0003FFFFFFFE8000000C0003FFFFFFFE8070000C300479018000000C0003FFFFFFFD018020000C30047A8020000C3003FFFFFFFE8000000C0003FFFFFFFD038000000C0003FFFFFFFD018010000C30043E8020000C30047A8000000C00
310
03FFFFFFFE8000000C0003FFFFFFFD038000000C0003FFFFFFFE8000000C0003FFFFFFFD018030000C30043E8030000C30043E8000000C0003FFFFFFFE8070000C30047A81E0000C3004F28000000C0003FFFFFFFE8000000C0003FFFFFFFD028000000C0003FFFFFFFD028070000C30047A8000000C0003FFFFFFFD018070
310
000C30047AAAA3F400030C010A4391E4151E4091E4793C41D1E4110F4050F7F64190F40D0F80200C
340
16
340
16
340
16
340
21A
340
16
340
16
340
16
340
21C
340
16
340
16
340
21B
340
21B
340
16
340
16
340
16
340
16
340
21A
340
16
340
16
340
16
340
21C
340
16
340
16
340
21B
340
21B
340
16
340
253
340
16
340
16
340
16
340
16
340
16
340
21A
340
16
340
16
340
16
340
16
340
16
340
16
340
16
340
16
340
16
340
16
340
15
340
15
340
15
340
15
340
15
340
15
340
15
340
15
340
15
340
259
340
15
340
15
340
15
340
15
340
15
340
15
340
16
340
15
340
15
340
15
340
15
340
15
340
15
340
16
340
15
340
15
340
15
340
15
340
25A
340
15
340
15
340
259
340
15
340
15
340
15
340
15
340
15
340
15
340
15
340
15
340
259
340
15
340
15
340
15
340
25A
340
15
340
15
340
15
340
15
340
15
340
25A
340
15
340
15
340
15
340
16
340
16
340
16
340
15
340
15
340
259
340
15
340
15
340
15
340
15
340
15
340
15
340
25A
340
15
340
15
340
15
340
15
340
15
340
15
340
15
340
15
340
15
340
15
340
15
340
15
340
15
340
15
340
21B
340
25B
340
21B
 94
        0
  0
ACAD_PROXY_OBJECT
  5
40B
102
{ACAD_REACTORS
330
406
102
}
330
406
100
AcDbProxyObject
 90
      499
 91
      570
 71
    33
 97
      157
 70
     0
162
               434
311
451100124013401140138014C0124013C013800B00104013401100150017C00A8017C01100124013401012A00404A801012A00404A800C
161
                11
310
43EC
 94
        0
  0
ACAD_PROXY_OBJECT
  5
40A
102
{ACAD_REACTORS
330
406
102
}
330
406
100
AcDbProxyObject
 90
      499
 91
      570
 71
    33
 97
      157
 70
     0
162
               290
311
404A8010B41004D005F004600450041002D0041004D005F002A00404A801012A00404A800C
161
                11
310
43EC
 94
        0
  0
ACAD_PROXY_OBJECT
  5
407
102
{ACAD_REACTORS
330
406
102
}
330
406
100
AcDbProxyObject
 90
      499
 91
      570
 71
    33
 97
      157
 70
     0
162
               194
311
4152001040150010C012001012A00404A801012A00404A800C
161
                11
310
43EC
 94
        0
  0
ACAD_PROXY_OBJECT
  5
408
102
{ACAD_REACTORS
330
406
102
}
330
406
100
AcDbProxyObject
 90
      499
 91
      570
 71
    33
 97
      157
 70
     0
162
              1026
311
41130012401380114012738002C0038004E002C002A002D0038002C002A002D0038004E002C0041004D005F0038002C0041004D005F0038004E002C002A002D0041004D005F0038002C002A002D0041004D005F0038004E00404A801012A00441240138014C01140148015000B0014C01500110014001040148015000C8011
311
000C
161
                11
310
43EC
 94
        0
  0
ACAD_PROXY_OBJECT
  5
40C
102
{ACAD_REACTORS
330
406
102
}
330
406
100
AcDbProxyObject
 90
      499
 91
      570
 71
    33
 97
      157
 70
     0
162
               290
311
40D040148010C010441004D005F003500404A801013200419240138014C01140148015000C
161
                11
310
43CC
 94
        0
  0
ACAD_PROXY_OBJECT
  5
409
102
{ACAD_REACTORS
330
406
102
}
330
406
100
AcDbProxyObject
 90
      499
 91
      570
 71
    33
 97
      157
 70
     0
162
              2242
311
61504010C01340118010C0118014801040134011400B00104010C013401100104015001540134015001040148011C0114015000B00104010C0134011001040150015401340124011000B00104010C0134015C011401300110014C0164013400B00104010C0134014C015401480118014C0164013400B00104010C013401180
311
114010401500124011000B00104010C0134014001040148015001480114011800B00104010C01340108010401300130013C013C013800B0010401340110015001140110011C0114014C0164013400B001040134011C014C010C01480114015C010C01040130010C0150010401080130011400B00104010C013401340104014
311
8012C014C015001040134014001012A00404A801012A00404A800C
161
                11
310
43EC
 94
        0
  0
FIELD
  5
E3E
102
{ACAD_REACTORS
330
E3D
102
}
330
E3D
100
AcDbField
  1
_text
  2
%<\_FldIdx 0>%
 90
        1
360
E74
 97
        0
 91
       63
 92
        0
 94
       13
 95
        2
 96
        0
300

 93
        1
  6
ACFD_FIELDTEXT_CHECKSUM
 93
        2
 90
        2
140
312.0
 94
        0
300

302

304
ACVALUE_END
  7
ACFD_FIELD_VALUE
 93
        3
 90
        0
 94
        0
300

302

304
ACVALUE_END
301

 98
        0
  0
DICTIONARY
  5
194
330
22
100
AcDbDictionary
280
     1
281
     1
  0
DICTIONARY
  5
188
330
97
100
AcDbDictionary
280
     1
281
     1
  3
FBXASSET
360
189
  0
DICTIONARY
  5
186
330
96
100
AcDbDictionary
280
     1
281
     1
  3
FBXASSET
360
187
  0
DICTIONARY
  5
110
330
98
100
AcDbDictionary
280
     1
281
     1
  3
BUMPTILE
360
112
  3
DIFFUSETILE
360
111
  3
FBXASSET
360
18A
  3
OPACITYTILE
360
113
  3
REFLECTIONTILE
360
114
  0
DICTIONARY
  5
274
330
273
100
AcDbDictionary
280
     1
281
     1
  3
ACAD_FIELD
360
275
  0
DICTIONARY
  5
104
330
87
100
AcDbDictionary
280
     1
281
     1
  3
ACAD_ROUNDTRIP_2008_TABLESTYLE_CELLSTYLEMAP
360
20DE
  0
ACAD_PROXY_OBJECT
  5
23D
102
{ACAD_REACTORS
330
23C
102
}
330
23C
100
AcDbProxyObject
 90
      499
 91
      542
 71
    33
 97
      157
 70
     0
162
              3734
311
411040138014C01240243904018C01B4014C01D401C801980150019401E001D0014C01D001900109410063006D0046004300460053007400640043504018C01B4015C019401B0019001A401B8019C014C01D001900108410063006D004900640053007400640042D04018C01B40110018401D001D401B4014C01D001900109
311
410063006D0042004F004D005300740064004410401B4019001D00110019401D0018401A401B0014C01E401B4014C01D00190011141006D0064007400530065006300740069006F006E00530079006D005300740064004450401B4019001D0010C019401B801D0019401C8013001A401B80194014C01D00190011141006D00
311
640074005400680072006500610064004C0069006E00650053007400640042D0401B4019001D0013801BC01D00194014C01D00190010B410063006D00540061007000650072005300740064004350401B4019001D0010401B8015801A4019401DC014C01D00190010B4100630041006D0067004C0061007900530074006400
311
42D04018C010401B4019C011001A401B4014C01D0019001114100630041006D00670048006F006C0065004300680061007200740053007400640043504018C010401B4019C015001A401D001B00194014C01D0019000
161
               725
310
73CB81E85EB51B8BE3F8000000C00040540600800030C0200000030000B81E85EB51B8BE3F495222812028120281202812028120281202812048120481202812028120281202812028120281202812028120280A04809FFFE7FFFC
340
11
360
23E
360
23F
360
240
360
241
360
242
360
243
360
244
360
268
360
245
360
267
360
246
360
247
360
248
360
249
360
24A
360
24B
360
24C
360
265
360
266
340
24D
340
0
340
15
340
15
 94
        0
  0
ACAD_PROXY_OBJECT
  5
210
102
{ACAD_REACTORS
330
20F
102
}
330
20F
100
AcDbProxyObject
 90
      499
 91
      518
 71
    33
 97
      157
 70
     0
162
              4108
311
42D10015C011C014C01140150015001240138011C014C0109430041004E00470041005200520041005900420CC00C001F000D000D401F000D800C00106430045004E0041004E004700424D000D401F000E400C001F000C400CC00D40106430045004E0044004900410041D0C01140138011001240104014C010B30002E0035
311
007C0031002E0030007C0031002E00350041D0C0114013801100124014C01500106430045004E004C0045004E004190C01140138013C01180118010E4300480041004D00460045005200440049004D004D004F00440045004550C0120010401340118011401480110012401340134013C01100114011001140118010401540
311
1300150010943004C0049004E0041005200520041005900438C000B800C400C800D401F000C000B800C800D401F000C000B800D4010843004C0049004E00450054005900500040D4801040164010944005700470055005300430041004C00450041D300104014C0150013C0108012801013000421340104012C01140158012
311
40114015C010650005300430041004C00450041948011401580124014C0124010130004154C010C010401300114010331003A00310042550012401340114014C01500104013401400107560045005200530049004F004E00414C400D400B800C000C001107B00440057004700530045005400540049004E004700530045004
311
E0044007D00C
161
               572
310
40682A0A940000000000001C07E82A50000000000000601FA50000000000000701FA50000000000000701FA7F27F20A82A50A0A9FA040C00800010541528081D141859905CD0505C
 94
        0
  0
ACAD_PROXY_OBJECT
  5
3D9
102
{ACAD_REACTORS
330
20F
102
}
330
20F
100
AcDbProxyObject
 90
      499
 91
      518
 71
    33
 97
      157
 70
     0
162
               356
311
4154C01A00184019801D001107B00440057004700530045005400540049004E004700530045004E0044007D00C
161
                11
310
404C
 94
        0
  0
ACAD_PROXY_OBJECT
  5
211
102
{ACAD_REACTORS
330
20F
102
}
330
20F
100
AcDbProxyObject
 90
      499
 91
      518
 71
    33
 97
      157
 70
     0
162
              1382
311
43550014801040138014C014C01140150015001240138011C014C0112440052004100570049004E0047005400520041004E0053004C004100540049004F004E004353C01480124011C012401380104013001300164017C013C0138010A53004F0055005200430045004C0041004E00470040D1401380154010955005000520
311
0450053004500520056004500441EC0110015C011C014C01140150015001240138011C014C01140138011001F400
161
               126
310
4060C008000418010000A0A0C0080000
 94
        0
  0
FIELD
  5
E74
330
E3E
100
AcDbField
  1
AcObjProp.16.2
  2
\AcObjProp.16.2 Object(%<\_ObjIdx 0>%).CustomScale \f "%sn"
 90
        0
 97
        1
331
9A0
 91
       63
 92
        0
 94
       59
 95
        2
 96
        0
300

 93
        2
  6
ObjectPropertyId
 93
        2
 90
       64
330
9A0
 94
        0
300

302

304
ACVALUE_END
  6
ObjectPropertyName
 93
        2
 90
        4
  1
CustomScale
 94
        0
300

302

304
ACVALUE_END
  7
ACFD_FIELD_VALUE
 93
        4
 90
        2
140
1.000000001204742
 94
        0
300
%sn
302
1:1
304
ACVALUE_END
301
1:1
 98
        3
  0
XRECORD
  5
189
102
{ACAD_REACTORS
330
188
102
}
330
188
100
AcDbXrecord
280
     1
 70
     1
 90
429727718
  1
508B35C9-AEE7-456F-BE74-D52651303AC6
310
504B03040A0000080000B670623B3DEE336E79000000790000001B0000006175746F6465736B2D64657369676E2D7061636B6167652E786D6C3C3F786D6C2076657273696F6E3D22312E302220656E636F64696E673D227574662D3822203F3E3C666F726D6174733E3C666F726D61743E687474703A2F2F736368656D612E
310
6175746F6465736B2E636F6D2F64657369676E2D7061636B6167652F323030393C2F666F726D61743E3C2F666F726D6174733E504B0304140006080800B670623BD486FD9CA0000000F4000000130000005B436F6E74656E745F54797065735D2E786D6C7D8EC10E82300C865F65E91D8A1E8C310C0EEA1BF002731658846E
310
D98AC1B77784ABF1D8FE5FBFBF75BBCE937A534CCEB38643598122B6FEE978D0B0485F9C41B54DDD7D022595594E1A469170414C76A4D9A4D207E29CF43ECE46F218070CC6BECC4078ACAA135ACF422C856C0E68EA1BF5669944DDD7BCDE7B1F8E415D77AECB980613C2E4AC91FC167A2B244592486606FC29C8FD7F045B9A
310
EF7053A7E60B504B0304140006080800B670623B28ED286BEB0000007C01000008000000636F72652E786D6C8D90416EC3201045AF82665B6183218D6D61A254764FD00B204C5C94182C03558F5F9C3852BBEB6A467FFE9B197D71FA9E6FE8CBACC17AD7012D0820E3B41FAD9B3A48F1826B40272956EFE32F1B20A766D3C1
310
268314D3EAD3B24BDABB685CCCAAF3A3D94515828980F42D371D04FD696655A814B3235C8B45E9AB9A4C419F5D8653B2237A1CB163DE672FD6AC209BF3C08E0D1B30EB19C3FC9D72FCC6EB231EFA33EDE96BDD341517E5064B11EDFCBCAF57A3A2194156843498524CAA0FCA5B7268F9E185D42D21A2DCEC7FA0B48CFF8492
310
759155FBBB0F2C80A4F991FB408A72CB22977B50B96EB9C91F504B0304140006080800B670623B55019EA25F0000007C00000007000000636E782E786D6C4DCB3B0E80201045D1AD90E915ED2CF8AC45050C11660C8261F98AB1B07AC9C97D42D718D865D3E909258CFD00CCE24AC6E326A164D74DC0B4128928FF32603847
310
2BA13128B1252AC747C6BAB984FC68F0B87FE8960A5C09FE86CFB69FBA01504B0304140006080800B670623B7BC41AC871010000D40300000C0000006662782F636F72652E786D6CC553ED6E8320147D15C2DF4501B56B6D90A64BBB27D80B50A5CE54C120983EFEAE1F4DD7A56BBA5FF3879273EEE59E7310BE393735EA95
310
ED2AA333CC428A91D2B9292A5D66D8BB63B0C26823B835C67D2BC348CB46657880B1E0A535BE9DA1DC68A7B403549B42CDA0EC3AE530CA6B5864B8CB3F552343E91D5474A7B095F949962A6421D0502778E72C0840D390E18DC5F170E664C205F7BE2A66B62A605A75AC94C522DDEEE3651AEF837817C741F2CE92E02D592D
310
83FD6ECB76EC7595A651C2C9D02CB8AB9A8BBADC2AE954814544691A3016D0E883256BBA58278B17BA5A53CAC9507ED3E4DBE2C9265F691747B3DCA9ADC382819091F8E1162272A8933DE82182932144F88C09DF060D8140C84E1EEA8B8F1340BDCA9DB1093085F157AA97B557309586747CD0EF0B4EA64E983A6E0EAEEFCE
310
889E9EF17847386AA94B30211D2C0FDE0D3AF9A4610EAD5536E8DD1969631B593F67E381C33F5157F17725E5A636F6BF1491F980C8FC7B90E13E8A2F504B0304140006080800B670623B70102A487D0000009D0000000B0000006662782F636E782E786D6C4DCCD10A83201886E15B91FFDC95A5C30335ACCDFB886521330D
310
A76397BF1A1DECE883878F57749FD5A3B74D2F17830472A901D9F088930B8B849267CC01754AA418F3DF0D5018572BE160506249B16C274D761E8BCFBB7A179E27F65CB39A0F14D396184C9921B81F34C3ACA1B4B99ABB6E6F062A25AA5F69DF23ACBE504B0304140006080800B670623B3610CA3329010000120200003100
310
00006662782F42384135303843342D343331462D343546312D424341352D3532343432364645413344462F636F72652E786D6C8D515B6EC32010BC0AE22B55850D0E446E848992B43E412FE000495162B07854397EA176A4F62F3F2C9A9D991D58BEBB8F37F0AD7D30CE76905418026DA553C65E3A98E219B510EC04F7CEC5
310
3F3408EC30EA0E16180A7EF12E4D0B249D8DDAC68C5AA7F4020E21E80881BCE54B0783FCD2E3500D296646B856D320AFC34557A4CAEDCC133C449F0380794839A138B47B86DB2345744D7A44594FD0E1B867883594369BFE63BF7EEF793D0B054FC9A8456E548E63CE46FB674D8A58F068C6477CE9F510B582A2C1F80D1182
310
70F349E816B32D65AFB8DD62CCEB42FF274A937A52948C8DEB66893BCB021484D7734370E5D2E9F608A3EF93F3119479ABA0E50B14B8C298119A43CCC4FCFCECB8A18B6388CEE7EF5D5D4F994BD86CBBA182D76543B9FCAE2FD7B24DF103504B0304140006080800B670623B1B8617914E0100003303000030000000666278
310
2F42384135303843342D343331462D343546312D424341352D3532343432364645413344462F636E782E786D6CD593C16EC32010447F0571AD6CE3D489D20813A9877E410FBD62D82434182CC055F3F75D1292E692438FBD206B7698593D61BEFD1E2DF982108D773D6D6B460938E5B571FB9ECE6957AD29D90A1EBC4F7736
310
4A9C1CA1A759A682EF839FA72269D8C9D92654AD71C72206887E0E0A22CAF926B15E498B01E0AA19451807D01A34B919F16B070157417138917400F2F6FA41FCF0092A45DEE414C19BDC21783E4BD39D891265658C3D8DEA00A3ACE59CBC8678ACB54CB26EEB6BD7839D7E9348BE70AD9C8321B9BCA7F9A4A26C542347DEE0
310
50F09802D22BA6749A800A394DD62899107273365E3C82CFC6A55557BC06C10774B7ABE7AEC3B0F34CF06446280E154026D0542C187BA9DAB6628BF7B6DBB0E5A65B3EB1F58631DE64BBE083F7B65CC218087E22CABB042E51D1F2268F1FE12B3EA24D40D63E9CFE00120194D60B9D5BC67FE6D39CDF37E20AF817881F504B
310
0304140006080800B670623BBFEF2E3B690500003C100000340000006662782F42384135303843342D343331462D343546312D424341352D3532343432364645413344462F6F626A656374732E786D6CAD575D739B3814FD2B0CFB0C98D84E931D4227B6938EA793B6534F3BFB90198F0099B001899144EAECAFDF231018B0
310
D37A3FFC609090EEE7B94757C1FB7D915B2F54C88CB31BDB7727B64559CC938CA53776A576CE956DBD0F03C1B9EA2DB32D460A7A63EB693B0C52C1ABD24C257447AA5C8D66EF177F5832A68CDA569C13296F6C193FD182B8A4523CA1F2D94D88226EBADBBBBEDB2C1C8A4D05299F46424B222853B014F30C52ACC6287F389C
310
D85E1878FA7B18E87FB36AFAF62AAFF667A83F635211161F291B8999FAB3D5DDC5FCDA99CF6653677679E13B8BFBC5CAF1DF4D27CBCBE5F2FAF6EE1A8AA51290642C117467871F101B91C581D77CEA2C36869F3229E68CD1B8F61F1ED6361B89092D294B90C78C4A68EB793D190E7D1D9BDEE7A91E1B95FDE9F3BCEAEFE809
310
6A6D6F9F7D4B79F4275C90E7A04248AA51D5C4C738DAE06F72885AC4796EBE65D22A88A22223B995679120E2D50EB1542F098381188D4EA111AE3DB043FF20AF6F2B4AE3D7D83D65E5AECA730D4D3BAC91BD05FEA992B565D95F549CD6069B90AB2A63EACA38A45E4B6A87D781574F86817E4C2FCCC72690D62E2729520E37
310
9BAF234797BAF6D62B3BFC781FED37BA1E4F2B2F052FA9501A3E80569BB8F6A9A364D4FA67654E6F803383981F82F21591FF84F23D9882BC896C3FDBCF8C162508933B2E0AE4C69DD43F6BD2BE38DDDBF10BF86CB4FA784D37F3AF16075E67EC9030DECA1FC0A55373F5DFF3378C591FA9BDF485C10B0A8C8BA909E5262639
310
A8E72163488806A595734C81CB77D1DE0ED7604A303B76913CEC0272F412782FF88EFF4636D8AA56DF7B322474C4B767303F625997056C7B032C473C592B36CEBD15F3F9FF5233B7ABCDC74D257624A60F8658567497B14CE1EC3C80B76FD02011038F9EE9EB0F2E12387A9C844D3F09855125116D1D731DF8B43D2CF4E0A0
310
79A020C6BE946BCE0B7EA1E1219331CD73C228AF5A2DDD31A4B1DA918CE91350854D40A71723140BFA92E94E62B0626016CEFA5864A50E5977E8753CEDBEE1CBB7F52780D20E17AF0BA0F5F9B02A3AD07DCC732EB6D1EBB661421BE0C39E21BABF0FE16D22EA6929407C8DE596724C88B749B6DB5512BC7B228ADFD7CB7EA6
310
3A22397E690BA8D5D8D4E40CEC8CDA23C2C0B7D5898640101CEC9C6D331CE328CB93CAFBBAC70A642DF70DF95155945B52F08AA973C23469FD69ADEF84F7BB18F983A8F8C90E37F5D35980B2139A1C523540813E824EF83448CF7C72B598CE97D7CEEDDDDD3B6736BFBC771677EF66CE6A7E7139F7A793E9EDF2B2B3A8B624
310
0CDA13AA5F8388264EC4A0129909F3B7F5A16CEDF08128E97D680ACA4B9BE7B7B58BB638F0B00700EF36AE8B32A705658A68F83EE897FC2B41573190D1CCAF0B92D233A47CFEB019D9809933F67DD1A5467F8CF69AD9A5AE859342D45355448C64F968A371DC2D596ADC6E43D93D1B466F877A64E2893E54F23C4B40388995
310
525E5005DA3983ED45412510D3EFCA13737B3863F74BD30F2A12E5B4B5E489A025CE25500DB855B11ACE5BBFA185D35DD48D8DC3CE7DC69F2944DB42AA6F6CF09BCA622ADD08C7A36E7C6AE18000BAB08E040135C2D21C9D75B3A91B77BB746C403F38018DFE6EC939DD92F16B40BC05294B9CDA035AAD6D330AE27FE4786B
310
8E45145EA34A75BE1C263A676A35A8ACC6297337400BF16C54EF515F3F77CB77EB3583889C754FFA29081AA98E2222ADEF05DA3E63D2EDEA8B8756C05A7FB6CABC4A91CBF325398202CC952E70A008A830324BA200D5E5EF8F5F04C75DB4B0EE3340E071C98B823333B83577596BF3849B69F2085AA0FAFA212F26BEFF5877
310
FDE622B28D88A42E49E43326DA82D31E8CB006401E1DA726059ECEC168F97A6599036306A135688F9AD2E61A6EA178F4CD51974A9F2CCB9F36FE5EBD14601068D9C3BF01504B0304140006080000B670623B000000000000000000000000350000006662782F42384135303843342D343331462D343546312D424341352D35
310
32343432364645413344462F76657274696365732E62696E504B0304140006080800B670623BF270F1330600000004000000360000006662782F42384135303843342D343331462D343546312D424341352D3532343432364645413344462F747269616E676C65732E62696E636660600000504B0304140006080000B67062
310
3B000000000000000000000000370000006662782F42384135303843342D343331462D343546312D424341352D3532343432364645413344462F617474726962757465732E62696E504B0304140006080800B670623B08DA0BD19000000041010000360000006662782F42384135303843342D343331462D343546312D4243
310
41352D3532343432364645413344462F6469726563746F72792E786D6C858F410AC3201045AF22B36F53E9A60B35CBEEBAE80D244E44489C6234F4F835464A48035D0DF398FF9F8AF63D0E6CC63039F212F8F9020C7D47C6792B21C5FE7403D62A1188E2E60C98D7234A5830286103A55745067B9D86B8A3CF9C7F90C11DE6
310
07FB144396D7B6A82D282E9A152AD114D5EF2CB866EEE831B8EEA07A7BB5A8D7D61A2BAAEB7FD5F70921FF497D00504B0304140006080800B670623B3B4606F3FE000000A00100003B0000006662782F42384135303843342D343331462D343546312D424341352D3532343432364645413344462F7265736F75726365732F
310
636F72652E786D6C8D504B6E833010BD0A9A6D65B08134808CA354A427E8052C332156828DFCA97AFC9A40A576D7CDCCE87D344F8F9FBEE647F689CE6B6B7A6039850C8DB2A336530F315C4903D94970676DF82583CCC8197B5861107C72362E3BA4AC096842428D1D7107A5F71820538F74F4E0D50D6799CB1892C2DFF345
310
AABB9C306779A2934E701F5C0A906D4FD609C2A1B7D129F4BCD858C163D4E3AED163FAA9AF1A1D88F67CA98E6D35906AA82A52BFB39ABCD5CD915C86331BD86BD3B665CD8BD52C78D0F34F46E550061C419494B6843142CB0F5677F4D0D58717DA7494F26295FF31C565FCA7296A13AA728FBBD93C0896823C09C18BB5AFB4
310
9E65A6BD762BBE01504B010214000A0000080000B670623B3DEE336E79000000790000001B00000000000000000000000000000000006175746F6465736B2D64657369676E2D7061636B6167652E786D6C504B01021400140006080800B670623BD486FD9CA0000000F40000001300000000000000000000000000B2000000
310
5B436F6E74656E745F54797065735D2E786D6C504B01021400140006080800B670623B28ED286BEB0000007C010000080000000000000000000000000083010000636F72652E786D6C504B01021400140006080800B670623B55019EA25F0000007C000000070000000000000000000000000094020000636E782E786D6C50
310
4B01021400140006080800B670623B7BC41AC871010000D40300000C00000000000000000000000000180300006662782F636F72652E786D6C504B01021400140006080800B670623B70102A487D0000009D0000000B00000000000000000000000000B30400006662782F636E782E786D6C504B01021400140006080800B6
310
70623B3610CA3329010000120200003100000000000000000000000000590500006662782F42384135303843342D343331462D343546312D424341352D3532343432364645413344462F636F72652E786D6C504B01021400140006080800B670623B1B8617914E010000330300003000000000000000000000000000D10600
310
006662782F42384135303843342D343331462D343546312D424341352D3532343432364645413344462F636E782E786D6C504B01021400140006080800B670623BBFEF2E3B690500003C10000034000000000000000000000000006D0800006662782F42384135303843342D343331462D343546312D424341352D35323434
310
32364645413344462F6F626A656374732E786D6C504B01021400140006080000B670623B0000000000000000000000003500000000000000000000000000280E00006662782F42384135303843342D343331462D343546312D424341352D3532343432364645413344462F76657274696365732E62696E504B010214001400
310
06080800B670623BF270F133060000000400000036000000000000000000000000007B0E00006662782F42384135303843342D343331462D343546312D424341352D3532343432364645413344462F747269616E676C65732E62696E504B01021400140006080000B670623B00000000000000000000000037000000000000
310
00000000000000D50E00006662782F42384135303843342D343331462D343546312D424341352D3532343432364645413344462F617474726962757465732E62696E504B01021400140006080800B670623B08DA0BD1900000004101000036000000000000000000000000002A0F00006662782F42384135303843342D3433
310
31462D343546312D424341352D3532343432364645413344462F6469726563746F72792E786D6C504B01021400140006080800B670623B3B4606F3FE000000A00100003B000000000000000000000000000E1000006662782F42384135303843342D343331462D343546312D424341352D3532343432364645413344462F72
310
65736F75726365732F636F72652E786D6C504B0506000000000E000E0080040000651100000000
  0
XRECORD
  5
187
102
{ACAD_REACTORS
330
186
102
}
330
186
100
AcDbXrecord
280
     1
 70
     1
 90
429727718
  1
887D55A9-D0DD-414E-B741-A7DCD4DA2B4C
310
504B03040A0000080000B670623B3DEE336E79000000790000001B0000006175746F6465736B2D64657369676E2D7061636B6167652E786D6C3C3F786D6C2076657273696F6E3D22312E302220656E636F64696E673D227574662D3822203F3E3C666F726D6174733E3C666F726D61743E687474703A2F2F736368656D612E
310
6175746F6465736B2E636F6D2F64657369676E2D7061636B6167652F323030393C2F666F726D61743E3C2F666F726D6174733E504B0304140006080800B670623BD486FD9CA0000000F4000000130000005B436F6E74656E745F54797065735D2E786D6C7D8EC10E82300C865F65E91D8A1E8C310C0EEA1BF002731658846E
310
D98AC1B77784ABF1D8FE5FBFBF75BBCE937A534CCEB38643598122B6FEE978D0B0485F9C41B54DDD7D022595594E1A469170414C76A4D9A4D207E29CF43ECE46F218070CC6BECC4078ACAA135ACF422C856C0E68EA1BF5669944DDD7BCDE7B1F8E415D77AECB980613C2E4AC91FC167A2B244592486606FC29C8FD7F045B9A
310
EF7053A7E60B504B0304140006080800B670623BBC1638F5EC0000007C01000008000000636F72652E786D6C8D90416EC3201045AF82665B61836BE2D8C24471DB9CA01740401C94182C03558F5F9C3852BBEB6A467FFE9B197D7EF89E6EE8CB2CC17AD7032D0820E394D7D68D3DA478C67B4007C117EFE32F1B202727D3C3
310
2A83E0E3E2D3BC49CABB685CCCAAF3DA6CA20CC14440EA969B1E82BA98491632C5EC08D76296EA2A4753D06797E194AC468F2356E77DF66CCD02825543D50CACC62D39ED70FDC68EB8FD68F6F8787A6784342D1DDA1D2F5758F068A7E77DB518198D065111D2624A31A93E69DD11D6D5EC85EC3B4278B9DAFF4069D6FF8492
310
75F1B5DADE7D600104CD8FDC0782976B16B9DC83CA75CD4DFC00504B0304140006080800B670623B55019EA25F0000007C00000007000000636E782E786D6C4DCB3B0E80201045D1AD90E915ED2CF8AC45050C11660C8261F98AB1B07AC9C97D42D718D865D3E909258CFD00CCE24AC6E326A164D74DC0B4128928FF326038
310
472BA13128B1252AC747C6BAB984FC68F0B87FE8960A5C09FE86CFB69FBA01504B0304140006080800B670623B3586FFB671010000D40300000C0000006662782F636F72652E786D6CC553ED6E8320147D15C2DF4541A76D6D90A6DDD627D80B50A4CE54C120983EFEAE1F4DD7A55BBA5FF3879273EEE59E7310B6393735EA
310
95ED2AA3731C851423A5A5292A5DE6D8BB63B0C268C39935C67D29C3488B46E578803167A535BE9D2169B453DA01AA4DA16650749D7218C91A1639EEE4876A4428BC838AEE14B6429E44A9C228041AEA38EB9C0501681A32BC313F1ECE8C4C3867DE57C5CC56054CAB8E95B298A7F12E5EEED224C8E87E11242FE936C8DE96
310
AB60BB7F4D295D66D12E5B30323473E6AAE6A24E5A259C2A308F29CD82280A68FC1E256B9AAE93F489AED694323294DF34F9B678B0C957DA3DC7B3DCA9ADC33C022123F1CD2D44E450277AD04338234388F01913BE0D1A0281909D38D4171F27807A259DB1093085F157AA17B557309586747CD0CF0B46A64E983A6E0EAEEF
310
CE881F9EF1FB8E70D44297604238581EBC1B74B249C31C5AAB6CD0BB33D2C636A27ECCC62F0EFF445DC5DF95244D6DEC7F2922F30191F9F720C37DE49F504B0304140006080800B670623B4220A0FF7D0000009D0000000B0000006662782F636E782E786D6C4DCCD10A83201886E15B91FFDCE542CB0335D0EC3E6259C84A
310
C3E9D8E5AF46073BFAE0E1E315DD675BD1DBA5978F41C2FD4600B9F088930F8B849267CC01754AA418F3DF0D50183727E164506249B1EC174D6E1ECB9A0F5D7D785E68DB8151CD286E5A5363CA6B8A39E90D36D40E96B086F55A43A544F52B1D7B86D517504B0304140006080800B670623B2FA3FEDE290100001202000031
310
0000006662782F45374635344235342D363743322D343832342D383044432D4334454645303536354442422F636F72652E786D6C8D515B6EC32010BC0AE22B55850D2E386E848994D7097A0117488A1283C5A3CAF10BB523B57FF961D1ECCCECC0F2ED7DBC816FED8371B687A4C210682B9D32F6D2C314CFA883602BB8772E
310
FEA141608751F7B0C050F08B77695A20E96CD43666D43AA5177008414708E42D5F7A18E4971E876A483133C2B59A06791D2EBA22556E679EE021FA1C00CC43CA09C5717D6274C7286AD7FB06D1AEA1A8C3873DDAD3E3E98859CB0EBB1DAF67A1E02919B5C88DCA71CCD968FFAC49110B1ECDF8882FBD1EA256503418BF2342
310
106E3E08DD60B6A1EC15771B8C795DE8FF4469524F8A92B1F1AD59E2CEB20005E1F5DC105CB9F4797B84D1F7C9F908CABC55D0F2050A5C61CC1AD2F27A26E6E767C7962E8E213A9FBF7775FDCC5CC266DB960A5E970DE5F2BBBE5CCB36C50F504B0304140006080800B670623B1B8617914E01000033030000300000006662
310
782F45374635344235342D363743322D343832342D383044432D4334454645303536354442422F636E782E786D6CD593C16EC32010447F0571AD6CE3D489D20813A9877E410FBD62D82434182CC055F3F75D1292E692438FBD206B7698593D61BEFD1E2DF982108D773D6D6B460938E5B571FB9ECE6957AD29D90A1EBC4F77
310
364A9C1CA1A759A682EF839FA72269D8C9D92654AD71C72206887E0E0A22CAF926B15E498B01E0AA19451807D01A34B919F16B070157417138917400F2F6FA41FCF0092A45DEE414C19BDC21783E4BD39D891265658C3D8DEA00A3ACE59CBC8678ACB54CB26EEB6BD7839D7E9348BE70AD9C8321B9BCA7F9A4A26C542347DE
310
E050F09802D22BA6749A800A394DD62899107273365E3C82CFC6A55557BC06C10774B7ABE7AEC3B0F34CF06446280E154026D0542C187BA9DAB6628BF7B6DBB0E5A65B3EB1F58631DE64BBE083F7B65CC218087E22CABB042E51D1F2268F1FE12B3EA24D40D63E9CFE00120194D60B9D5BC67FE6D39CDF37E20AF817881F50
310
4B0304140006080800B670623B29652116630500003C100000340000006662782F45374635344235342D363743322D343832342D383044432D4334454645303536354442422F6F626A656374732E786D6CAD575D739B3814FD2B0CFB0C989834C90EA1639B24E3E9A6EDD4D3CE3E64C623834CD8006224913AFDF57B040203
310
B65BEF871F0C12D2FD3CF7E8CA7FBFCB33E3957291B2E2D674ED8969D02262715A24B76625B7D6B569BC0F7CCE98EC2D338D82E4F4D654D366E0279C55A59E8AE99654991CCDDECFFF3444440B6A1A514684B83545F44C7362934AB2988A173B2692D8C97667BB76B3702836E1A47C1E092D09A78584A5982F20C5688C7287
310
C389E904BEA3BE07BEFAD7ABA6A75739B53F43FD69212429A20365233153D70BEF2E2E6FAC4BCF9B5ADEBB0BD79ADFCF43CBBD9A4E16EF168B9BD9DD0D140BC921495BC2E9D60C1E101B9E46BED37CEA2CD6861F3329624541A3DA7F7858DBAC25C6B4A4458C3CA654405BCFEBC970E8AAD8F43E4FD558ABEC4F9FE7557F47
310
4F506B7BFBEC5BCA367FC105710E2AB8A00A554D7CB4A30DFE26FBA86D18CBF4B75418399194A72433B274C3097F33032C554B027F2046A1932B842B0FCCC0DDCBEBDB8AD2F835768F59B9ADB24C41D30C6A64AF817F2A456D59FA83F2E3DA60137255A585BCD60EC9B7929AC18DEFD49381AF1ED30BFDB109A4B1CD488294
310
C3CDE6EBC8D185AABD6568061FEE37BB95AAC7E3CA4BCE4ACAA5820FA0D526AE7DAA2869B5EE5999531BE0CC20E6FBA07C41E43FA27CF7A6206F3CDD793B4F6B919C1462CB788EDCD893FA674CDA17AB7B3B7C019F8D561FAEE966FED562DFE98C1D12C6A9FC015C2A35D7FF3D7FC398F591DA4B5FE0BFA2C0189FEA50AE22
310
92817A1ED3020951A03432862970F976B33383259812CC8E5D240BBA801CBCF8CE2BBEE3BF910DB6AAD5F79E05123AE2DB33981FB1ACCB02B69D00CB014FD68AB573A7627EF9BFD4CC2C5C7D58557C4B22FAA88925A4DBB44825CECE3D78FB060D1231F0E885BE7D673C86A3874958F593906B5502D1563157814FDAC3420D
310
F69A070A22EC4B98E23CFF171A1E5311D12C23056555ABA53B8614563B92D17D02AAB009E8F46284624E5F53D5490C560CCCC2591FF1B45421EB0EBD8EA7ED13BE7C5D7E0428CD60FEF60779EB13E6664FF711CB185F6FDED60D139A001FF60CD1FD6D086F1D51474901E26B2CB794A343BC8ED3EDB612E0DD2351FCB65CF4
310
33D511C9E14B5B40ADC6A6263DB0336A8F700DDF56271A024E70B0B3629DE21847591E55DED73D56206AB927E46FAABC5C939C55853C274C93D69FD6FA4E78BF8B11DF898C9ECD60553FAD39283BA6F18984AA23E8884F83F45C5F5F859797B31B2B9C84A1E5B9DE9D35BFF25C6B76152E422F9C5DCC3D847F5801ED09D5AF
310
41441327A25FF15487F9EB725FB666F048A4701E9A827292E6F97569A32DF61DEC01C0BB8DCBBCCC684E0B49147C1FD54BF685A0AB18C868E6973949E819523E3DAC463660E68C7D9F55A9D1EFA3BD7A76A16AE1A810F95CE59B82A4D968A376DC2E8B44BBDD86B27B368CDE0ED548C7137DA860591A83706223A12CA712B4
310
7306DBF39C0A20A6DF95C7FAF670C6EED7A61F946493D1D6926782963813403548A78AE470DEF80D2D9CEAA26E4D1C76F60BFE74219A06527D6B82DF641A51616F703CAAC6A7160E08A00BEB4810A0274592A1B36E3675E36E978A0DE80727A0D6DF2D39A75BD27E0D8837276589537B40ABB56D5A41F48F1C6FCD3188C4EB
310
A6929D2FFB89CE995A4D00AE813BDD032DC48B56BD437DFDDC2DD7AED70C2272D63DE9A72068A45A92F0A4BE17A8A06B9366E16707AD80B1FC649459952097E74BB23805982B55E0401150A165964402AA8BDF9F3E7386BB686EDCA780C0D382E5392BF460A6EFB2C6EA1937D3F809B440D5F5435C4C5CF7A9EEFAF54564BD
310
2182DA24162F98680B4E7930C21A0079709CEAEB99A372305ABE0C0D7D6078105A83F6A0296DAEE1068A47DD1C55A9F4C9B2FC69E3EFD44B81028E963DF81B504B0304140006080000B670623B000000000000000000000000350000006662782F45374635344235342D363743322D343832342D383044432D433445464530
310
3536354442422F76657274696365732E62696E504B0304140006080800B670623BF270F1330600000004000000360000006662782F45374635344235342D363743322D343832342D383044432D4334454645303536354442422F747269616E676C65732E62696E636660600000504B0304140006080000B670623B00000000
310
0000000000000000370000006662782F45374635344235342D363743322D343832342D383044432D4334454645303536354442422F617474726962757465732E62696E504B0304140006080800B670623B08DA0BD19000000041010000360000006662782F45374635344235342D363743322D343832342D383044432D4334
310
454645303536354442422F6469726563746F72792E786D6C858F410AC3201045AF22B36F53E9A60B35CBEEBAE80D244E44489C6234F4F835464A48035D0DF398FF9F8AF63D0E6CC63039F212F8F9020C7D47C6792B21C5FE7403D62A1188E2E60C98D7234A5830286103A55745067B9D86B8A3CF9C7F90C11DE607FB144396
310
D7B6A82D282E9A152AD114D5EF2CB866EEE831B8EEA07A7BB5A8D7D61A2BAAEB7FD5F70921FF497D00504B0304140006080800B670623B6378F24DFF000000A00100003B0000006662782F45374635344235342D363743322D343832342D383044432D4334454645303536354442422F7265736F75726365732F636F72652E
310
786D6C8D504B6E833010BD0A9A6D65B0094E42641C85B639412F6099496225D8C89FAAC7AF09546A77DDCC8CDE47F3F4C4F16B7C149FE88371B603565228D06A37187BED20C50BD9437194C23B177FC9A0B06AC40E6618A4B87A97A615D2CE46B431A3D60DB8822A048C50E8473E3A08FA86A32A558A5911EEE5A4F45D5DB1
310
6465A6B34E8A107D0E502C4FE609D26370C96B0CA25A58295232C3AA3143FE692E063D485EF7F5AEE71BD2D2F39634AFFC44DAF7DD9E9CCE6F9CD25DCBFA762BAAD92C4534E34F46ED51451C40D694B6843142EB0FD61C283F34FC85EE0F948A6A96FF31A569F8A729191B37F51A77B105902C0779125254735F793DCBCC7B
310
EE567E03504B010214000A0000080000B670623B3DEE336E79000000790000001B00000000000000000000000000000000006175746F6465736B2D64657369676E2D7061636B6167652E786D6C504B01021400140006080800B670623BD486FD9CA0000000F40000001300000000000000000000000000B20000005B436F6E
310
74656E745F54797065735D2E786D6C504B01021400140006080800B670623BBC1638F5EC0000007C010000080000000000000000000000000083010000636F72652E786D6C504B01021400140006080800B670623B55019EA25F0000007C000000070000000000000000000000000095020000636E782E786D6C504B010214
310
00140006080800B670623B3586FFB671010000D40300000C00000000000000000000000000190300006662782F636F72652E786D6C504B01021400140006080800B670623B4220A0FF7D0000009D0000000B00000000000000000000000000B40400006662782F636E782E786D6C504B01021400140006080800B670623B2F
310
A3FEDE290100001202000031000000000000000000000000005A0500006662782F45374635344235342D363743322D343832342D383044432D4334454645303536354442422F636F72652E786D6C504B01021400140006080800B670623B1B8617914E010000330300003000000000000000000000000000D2060000666278
310
2F45374635344235342D363743322D343832342D383044432D4334454645303536354442422F636E782E786D6C504B01021400140006080800B670623B29652116630500003C10000034000000000000000000000000006E0800006662782F45374635344235342D363743322D343832342D383044432D4334454645303536
310
354442422F6F626A656374732E786D6C504B01021400140006080000B670623B0000000000000000000000003500000000000000000000000000230E00006662782F45374635344235342D363743322D343832342D383044432D4334454645303536354442422F76657274696365732E62696E504B01021400140006080800
310
B670623BF270F13306000000040000003600000000000000000000000000760E00006662782F45374635344235342D363743322D343832342D383044432D4334454645303536354442422F747269616E676C65732E62696E504B01021400140006080000B670623B0000000000000000000000003700000000000000000000
310
000000D00E00006662782F45374635344235342D363743322D343832342D383044432D4334454645303536354442422F617474726962757465732E62696E504B01021400140006080800B670623B08DA0BD190000000410100003600000000000000000000000000250F00006662782F45374635344235342D363743322D34
310
3832342D383044432D4334454645303536354442422F6469726563746F72792E786D6C504B01021400140006080800B670623B6378F24DFF000000A00100003B00000000000000000000000000091000006662782F45374635344235342D363743322D343832342D383044432D4334454645303536354442422F7265736F75
310
726365732F636F72652E786D6C504B0506000000000E000E0080040000611100000000
  0
XRECORD
  5
112
102
{ACAD_REACTORS
330
110
102
}
330
110
100
AcDbXrecord
280
     1
270
     1
271
     1
  0
XRECORD
  5
111
102
{ACAD_REACTORS
330
110
102
}
330
110
100
AcDbXrecord
280
     1
270
     1
271
     1
  0
XRECORD
  5
18A
102
{ACAD_REACTORS
330
110
102
}
330
110
100
AcDbXrecord
280
     1
 70
     0
 90
1778669749
  1
9BF507EE-FAF7-4A99-A33D-4EE51894BC40
310
504B03040A0000080000B670623B3DEE336E79000000790000001B0000006175746F6465736B2D64657369676E2D7061636B6167652E786D6C3C3F786D6C2076657273696F6E3D22312E302220656E636F64696E673D227574662D3822203F3E3C666F726D6174733E3C666F726D61743E687474703A2F2F736368656D612E
310
6175746F6465736B2E636F6D2F64657369676E2D7061636B6167652F323030393C2F666F726D61743E3C2F666F726D6174733E504B0304140006080800B670623BD486FD9CA0000000F4000000130000005B436F6E74656E745F54797065735D2E786D6C7D8EC10E82300C865F65E91D8A1E8C310C0EEA1BF002731658846E
310
D98AC1B77784ABF1D8FE5FBFBF75BBCE937A534CCEB38643598122B6FEE978D0B0485F9C41B54DDD7D022595594E1A469170414C76A4D9A4D207E29CF43ECE46F218070CC6BECC4078ACAA135ACF422C856C0E68EA1BF5669944DDD7BCDE7B1F8E415D77AECB980613C2E4AC91FC167A2B244592486606FC29C8FD7F045B9A
310
EF7053A7E60B504B0304140006080800B670623BCA089DFFEC0000007C01000008000000636F72652E786D6C8D90416E83301045AF62CDB632D8402020E32882F604BD80653BC44AB011B6AB1EBF262152BBEB6A467FFE9B197D76FA9EEFE84BAFDE38DB03CD08206DA553C64E3DC470C1474027CE56E7C22F1B202B66DDC3
310
260367D3EAE2B24BD2D9A06D48AA754AEFA2F05E0740F29E9A1EBCBCEA59642286E4F0B76C11F226269DD15797E0188D42CF2346A57DE662F40ABCAEC77628C6120F654571D50C04B7F5B9C1E3997CD4F550BE3745C3F20DE62C98F9755FAE5A04AD801784B498524C8A4F5A75E4D055873772EC0861F966FF03C545FD138A
310
C686B2D8DF7D621E384D8F3C069CE55B16A93C824A75CB8DFF00504B0304140006080800B670623B55019EA25F0000007C00000007000000636E782E786D6C4DCB3B0E80201045D1AD90E915ED2CF8AC45050C11660C8261F98AB1B07AC9C97D42D718D865D3E909258CFD00CCE24AC6E326A164D74DC0B4128928FF326038
310
472BA13128B1252AC747C6BAB984FC68F0B87FE8960A5C09FE86CFB69FBA01504B0304140006080800B670623B68FC0B7272010000D40300000C0000006662782F636F72652E786D6CC5535B6E833010BC8AE5DF0A6C1E8124328E22D29EA01770C0A128602363A31CBFCB234A53A555FA553EC09AD9F5CE8C31DB5DDA060D
310
D2F4B556190E7C8A9154852E6B5565D8D993B7C668C799D1DA7E29C3488956667884316795D1AE5BA0422B2B950554E9522EA0E87B69312A1A5864B82F3E642B7CE12C54F467BF13C55954D20F7CA0A18EB3DE1A1080E621E31BF3D3F1C2C88C73E65C5D2E6C5DC2B4FA544B8379921C36797888BC3C8A032F4E73EA6D927D
310
EA1DF6F42D49F2E8350D5346C666CE6CDD5ED515460A2B4BCC434A375E1078347C0FE22D5D6DE3D50B5D6F2965642CBF6B725DF96493AB958DC245EEDCD6631E809089F8E61622B2A81703E8219C913144F84C09DF070D8140C8561C9BAB8F3340832CAC363130A576376A108D933095FA747AD0CF0B46E64E983A6D0EAE1F
310
CE089F9EF1FB8E70D44255604258581E9D1D75B259C3125A278D37D80B52DAB4A279CEC62F0EFF44DDC43F9454E8469BFF5244960322CBEF41C6FBC83F01504B0304140006080800B670623B0F71DDB67E0000009D0000000B0000006662782F636E782E786D6C4DCCD10A83201886E15B91FFDCA54DB73F502386BB8F5816
310
32D3703976F9ABD1C18E3E78F87855FB990379BBFCF2296AE02706C4C5471A7C9C349475A408A4352AA7B4FEDD80C47E761A7606A3A69CCA72D0E0C6BE8475D3E0E3F3409428EA6B27A84079A782899AA2EC1A7AE3ECCC2FD858CB2D544655BFD2B67BD87C01504B0304140006080800B670623BE134B4FB28010000120200
310
00310000006662782F38353834323741342D343835462D343034322D383541392D4331303331363839454531452F636F72652E786D6C8D515B6EC32010BC0AE22B55850D0EA424C24451959EA0172086A42831583CAA1CBF503B52FB971F16CDCECC0EACD8DFC71BF836215AEF7A481A0C817183D7D65D7A98D3197108F652
310
04EFD31F1A044E8DA6871586525C82CFD3020DDE25E352419DD76601558C264130DCCAA58771F832A36A544E8511AFCDA486ABBA988634A55D7852C4144A00300FA927949C71DABD1D28A29C7D208A6987383B6CD13BC16BB2E1DBE3911C453B0BA5C8D9EA456E758963CFD684674DAA588A64C747FC2118958C86B2C3788B
310
0841B8FB247487D98EB257CC77188BB6D2FF89F2A49F1465EBD2BA5BE2CEB2082511EDDC9042FB7CBA3DC298FBE4430275DE2A9AE1054ADC60CC08E3A29D89E5F9C5714317C7987C28DFBBBA9E0A97B0D97643A568EB864AF95D5FA9759BF207504B0304140006080800B670623B1B8617914E010000330300003000000066
310
62782F38353834323741342D343835462D343034322D383541392D4331303331363839454531452F636E782E786D6CD593C16EC32010447F0571AD6CE3D489D20813A9877E410FBD62D82434182CC055F3F75D1292E692438FBD206B7698593D61BEFD1E2DF982108D773D6D6B460938E5B571FB9ECE6957AD29D90A1EBC4F
310
77364A9C1CA1A759A682EF839FA72269D8C9D92654AD71C72206887E0E0A22CAF926B15E498B01E0AA19451807D01A34B919F16B070157417138917400F2F6FA41FCF0092A45DEE414C19BDC21783E4BD39D891265658C3D8DEA00A3ACE59CBC8678ACB54CB26EEB6BD7839D7E9348BE70AD9C8321B9BCA7F9A4A26C542347
310
DEE050F09802D22BA6749A800A394DD62899107273365E3C82CFC6A55557BC06C10774B7ABE7AEC3B0F34CF06446280E154026D0542C187BA9DAB6628BF7B6DBB0E5A65B3EB1F58631DE64BBE083F7B65CC218087E22CABB042E51D1F2268F1FE12B3EA24D40D63E9CFE00120194D60B9D5BC67FE6D39CDF37E20AF817881F
310
504B0304140006080800B670623B5933D422630500003B100000340000006662782F38353834323741342D343835462D343034322D383541392D4331303331363839454531452F6F626A656374732E786D6CAD575B6FA33814FE2B887D0642934E9B156594264D158D3A534DD4D13E548A0C38942D60649B4EBABF7E3F8321
310
40924EF6928780CDF1B97EE762EFF32E4B8D37CA45C2F21BD3B547A641F39045491EDF98A5DC5AD7A6F1D9F73863B243661A39C9E88DA9B64DDF8B392B0BBD15D12D295339D85DDEFE618890E6D434C2940871638AF08566C426A5641115AF764424B1E3EDCE76ED9AB0CF36E6A47819302D08A7B984A6D8CFC1C5A89572FB
310
CB91E9F89EA3BEFB9EFAD754E3D3544E654F5F7E920B49F2F040D880CDD89D2CEE2E2EA7D6E56432B6269F2E5CEB7679BBB0DCABF168FE693E9FCEEEA6102C240727AD09A75BD3BF876F78127A4EFDA9D5582B7E4CA590E5390D2BFB6161A5B3E618D182E611E2985001691DAB47FDA5AB7CD3F93C566B2DB2BB7D9E55DD13
310
1D468DEECDB3AB290BFE8409E21C54704115AA6AFF68436BFC8DF65E0B184BF5B74418199194272435D224E084BF9B3E481589EFF5D828747285706581E9BB7B7E5D5D911ABFC6EE312DB7659A2A689A7E85EC0DF04FA5A8344BFEA2FCB834E8845895492EAFB541F2BDA0A63FF59C6AD3F7D4637CA13FD68E34B629891172
310
98597F1D183A57B9B75A98FE9765B05BAB7C3C2EBCE0ACA05C2AF8005A4DE09AA7F29216EB9E15397500C6F47CBE77CA7778FE2BD277AF0AE2C693DD6437D1522427B9D8329E2136F6A8FA19A3E6C56ADF0E5F50CF06D48734EDCEBF22F69C56D97EC138153F804B85E6FABFC7AFEFB32E523BE1F3BD372418E363EDCA7548
310
52949E8724474014288D94610BB57C1BEC4C7F854A89CA8E5324F55B871CBC78CE1BBEE3BFE68D6A5589EF3C730474506FCFA8FCF0659516D0ED04580EEA6425581B77CAE797FF4BCECC16EB2FEB926F49481F746159D06D922712BD730FDEAE42BD40F42C7AA5EF3F198F60E86110D6DD20645A9480B795CF95E3E3A659A8
310
C55E724F408873315335CFFB8584874484344D494E59D94869DB90C26A5B64F49C802CAC1D3ABE18A098D3B7444D123D8A9E5AE8F5214F0AE5B2B6E9B575DA3E61CBD3EA2B4009FA940524DD1305FB6A1FB294F14DF0BEA90BA109ECE1481FDC3FFAE8D60E75141700BE82725371B4873751B2DD960265F788137FACE6DD40
310
B575E4F0A5C99F46629D92131467A41EE11ABD8D4CCC039CA0AFB37C93A08B232B8F0AEFCA1E0A1015DF13FC83322B362463652ECF71D3A8B1A7D1BE65DE1D62C44F22C317D35F574FEB16153BA2D13E543D10A80E74C4A65E78A6B7CBCBD1D5DD9DB59C2DAFACC96C3AB566E3F1C29ADCDD5DBAD7D3C9ED7C822ED74F80A6
310
41755310DE4443F44A9E68373FADF6596BFA0F440AE7BECE2727AE9F4F2B1B53B1E7E00CF0DD1E5C65454A339A4BA2D0FBA05ED2EF0443458F47BDBFCA484CCFE0F2ED7E3DD0013B679C7B5499467F0ECEEADDB9CA85A34CE44B99053949D2C1416DB85DE4B136BB7165FBAC0B7AB3542BED4F8CA182A549847A1319316519
310
95A83A67147B9E5101C47487F2485F1ECE38FD568F839204296D3479219888530154036E6528FBFBC66F98E0D4107563A2D7D9AFF8D389681A08F58D89F22693900A3B407754734FC51C10C010D6D640809EE4718AC1BA3ED4AEDB53CA37283F68805A7E4B72CEB0A4EDEAD5DD8C14059A76AFAA56BA6901E13F32BC51C720
310
12AF41295B5BF61BAD3195181FB506E6B40F4C10AF5AF40EF9F5B159AE5DD1F43C72D635E94310D45C2D49785C5D0B94D3B54AB3C5A38349C0587D338AB48C11CBF339599C02CCA54A70A008A8D03C0B2201D5F9EFCF8F9CE12A9A19CB0410789EB32C63B95ECCF455D658BFE0621A3DA32C5075FB101723D77DAE867E7D0F
310
D90444509B44E2151B4DC2290B065803200FBAA9BE9D392A0603F2D5C2D00D6302A615680F66D2FA166E2079D4C551A54AB758161FCEFD4E450A14704CECFEDF504B0304140006080000B670623B000000000000000000000000350000006662782F38353834323741342D343835462D343034322D383541392D4331303331
310
363839454531452F76657274696365732E62696E504B0304140006080800B670623BF270F1330600000004000000360000006662782F38353834323741342D343835462D343034322D383541392D4331303331363839454531452F747269616E676C65732E62696E636660600000504B0304140006080000B670623B000000
310
000000000000000000370000006662782F38353834323741342D343835462D343034322D383541392D4331303331363839454531452F617474726962757465732E62696E504B0304140006080800B670623B08DA0BD19000000041010000360000006662782F38353834323741342D343835462D343034322D383541392D43
310
31303331363839454531452F6469726563746F72792E786D6C858F410AC3201045AF22B36F53E9A60B35CBEEBAE80D244E44489C6234F4F835464A48035D0DF398FF9F8AF63D0E6CC63039F212F8F9020C7D47C6792B21C5FE7403D62A1188E2E60C98D7234A5830286103A55745067B9D86B8A3CF9C7F90C11DE607FB1443
310
96D7B6A82D282E9A152AD114D5EF2CB866EEE831B8EEA07A7BB5A8D7D61A2BAAEB7FD5F70921FF497D00504B0304140006080800B670623BD9A3B367FE000000A00100003B0000006662782F38353834323741342D343835462D343034322D383541392D4331303331363839454531452F7265736F75726365732F636F7265
310
2E786D6C8D504B6E833010BD0A9A6D65B01D0201194711694FD00B586642AD043BF2A7EAF16B122AB5BB6E6646EFA3797AE2F8B5DC8A4FF4C1383B002B291468B59B8C9D0748F1420E501CA5F0CEC55F3228AC5A708015062966EFD27D83B4B3116DCCA875136EA00A012314FA968F0182FEC045952AC5AC08D7F2AEF455CD
310
58B232D3592745883E07289E4FD609D26370C96B0CA27AB252A464A64D63A6FCD35C0C7A904D73EE467EE664DCD58CD4ED4849D79C5A723ED1B7A61977AF2D6F45B59AA58866F9C9A83DAA8813484E6947182394BFB3BAA7FBBEDEBFD0434FA9A856F91F53BA4FFF342563E38E6F719FB60092E5200F428A6AED2BAF479979
310
AFDDCA6F504B010214000A0000080000B670623B3DEE336E79000000790000001B00000000000000000000000000000000006175746F6465736B2D64657369676E2D7061636B6167652E786D6C504B01021400140006080800B670623BD486FD9CA0000000F40000001300000000000000000000000000B20000005B436F6E
310
74656E745F54797065735D2E786D6C504B01021400140006080800B670623BCA089DFFEC0000007C010000080000000000000000000000000083010000636F72652E786D6C504B01021400140006080800B670623B55019EA25F0000007C000000070000000000000000000000000095020000636E782E786D6C504B010214
310
00140006080800B670623B68FC0B7272010000D40300000C00000000000000000000000000190300006662782F636F72652E786D6C504B01021400140006080800B670623B0F71DDB67E0000009D0000000B00000000000000000000000000B50400006662782F636E782E786D6C504B01021400140006080800B670623BE1
310
34B4FB280100001202000031000000000000000000000000005C0500006662782F38353834323741342D343835462D343034322D383541392D4331303331363839454531452F636F72652E786D6C504B01021400140006080800B670623B1B8617914E010000330300003000000000000000000000000000D3060000666278
310
2F38353834323741342D343835462D343034322D383541392D4331303331363839454531452F636E782E786D6C504B01021400140006080800B670623B5933D422630500003B10000034000000000000000000000000006F0800006662782F38353834323741342D343835462D343034322D383541392D4331303331363839
310
454531452F6F626A656374732E786D6C504B01021400140006080000B670623B0000000000000000000000003500000000000000000000000000240E00006662782F38353834323741342D343835462D343034322D383541392D4331303331363839454531452F76657274696365732E62696E504B01021400140006080800
310
B670623BF270F13306000000040000003600000000000000000000000000770E00006662782F38353834323741342D343835462D343034322D383541392D4331303331363839454531452F747269616E676C65732E62696E504B01021400140006080000B670623B0000000000000000000000003700000000000000000000
310
000000D10E00006662782F38353834323741342D343835462D343034322D383541392D4331303331363839454531452F617474726962757465732E62696E504B01021400140006080800B670623B08DA0BD190000000410100003600000000000000000000000000260F00006662782F38353834323741342D343835462D34
310
3034322D383541392D4331303331363839454531452F6469726563746F72792E786D6C504B01021400140006080800B670623BD9A3B367FE000000A00100003B000000000000000000000000000A1000006662782F38353834323741342D343835462D343034322D383541392D4331303331363839454531452F7265736F75
310
726365732F636F72652E786D6C504B0506000000000E000E0080040000611100000000
  0
XRECORD
  5
113
102
{ACAD_REACTORS
330
110
102
}
330
110
100
AcDbXrecord
280
     1
270
     1
271
     1
  0
XRECORD
  5
114
102
{ACAD_REACTORS
330
110
102
}
330
110
100
AcDbXrecord
280
     1
270
     1
271
     1
  0
DICTIONARY
  5
275
102
{ACAD_REACTORS
330
274
102
}
330
274
100
AcDbDictionary
280
     1
281
     1
  3
TEXT
360
276
  0
CELLSTYLEMAP
  5
20DE
102
{ACAD_REACTORS
330
104
102
}
330
104
100
AcDbCellStyleMap
 90
        3
300
CELLSTYLE
  1
TABLEFORMAT_BEGIN
 90
        5
170
     1
 91
        0
 92
    32768
 62
   257
 93
        1
300
CONTENTFORMAT
  1
CONTENTFORMAT_BEGIN
 90
        0
 91
        0
 92
      512
 93
        0
300

 40
0.0
140
1.0
 94
        5
 62
     0
340
11
144
0.25
309
CONTENTFORMAT_END
171
     1
301
MARGIN
  1
CELLMARGIN_BEGIN
 40
0.06
 40
0.06
 40
0.06
 40
0.06
 40
0.18
 40
0.18
309
CELLMARGIN_END
 94
        6
 95
        1
302
GRIDFORMAT
  1
GRIDFORMAT_BEGIN
 90
        0
 91
        1
 62
     0
 92
       -2
340
0
 93
        0
 40
0.045
309
GRIDFORMAT_END
 95
        2
302
GRIDFORMAT
  1
GRIDFORMAT_BEGIN
 90
        0
 91
        1
 62
     0
 92
       -2
340
0
 93
        0
 40
0.045
309
GRIDFORMAT_END
 95
        4
302
GRIDFORMAT
  1
GRIDFORMAT_BEGIN
 90
        0
 91
        1
 62
     0
 92
       -2
340
0
 93
        0
 40
0.045
309
GRIDFORMAT_END
 95
        8
302
GRIDFORMAT
  1
GRIDFORMAT_BEGIN
 90
        0
 91
        1
 62
     0
 92
       -2
340
0
 93
        0
 40
0.045
309
GRIDFORMAT_END
 95
       16
302
GRIDFORMAT
  1
GRIDFORMAT_BEGIN
 90
        0
 91
        1
 62
     0
 92
       -2
340
0
 93
        0
 40
0.045
309
GRIDFORMAT_END
 95
       32
302
GRIDFORMAT
  1
GRIDFORMAT_BEGIN
 90
        0
 91
        1
 62
     0
 92
       -2
340
0
 93
        0
 40
0.045
309
GRIDFORMAT_END
309
TABLEFORMAT_END
  1
CELLSTYLE_BEGIN
 90
        1
 91
        1
300
_TITLE
309
CELLSTYLE_END
300
CELLSTYLE
  1
TABLEFORMAT_BEGIN
 90
        5
170
     1
 91
        0
 92
        0
 62
   257
 93
        1
300
CONTENTFORMAT
  1
CONTENTFORMAT_BEGIN
 90
        0
 91
        0
 92
      512
 93
        0
300

 40
0.0
140
1.0
 94
        5
 62
     0
340
11
144
0.18
309
CONTENTFORMAT_END
171
     1
301
MARGIN
  1
CELLMARGIN_BEGIN
 40
0.06
 40
0.06
 40
0.06
 40
0.06
 40
0.18
 40
0.18
309
CELLMARGIN_END
 94
        6
 95
        1
302
GRIDFORMAT
  1
GRIDFORMAT_BEGIN
 90
        0
 91
        1
 62
     0
 92
       -2
340
0
 93
        0
 40
0.045
309
GRIDFORMAT_END
 95
        2
302
GRIDFORMAT
  1
GRIDFORMAT_BEGIN
 90
        0
 91
        1
 62
     0
 92
       -2
340
0
 93
        0
 40
0.045
309
GRIDFORMAT_END
 95
        4
302
GRIDFORMAT
  1
GRIDFORMAT_BEGIN
 90
        0
 91
        1
 62
     0
 92
       -2
340
0
 93
        0
 40
0.045
309
GRIDFORMAT_END
 95
        8
302
GRIDFORMAT
  1
GRIDFORMAT_BEGIN
 90
        0
 91
        1
 62
     0
 92
       -2
340
0
 93
        0
 40
0.045
309
GRIDFORMAT_END
 95
       16
302
GRIDFORMAT
  1
GRIDFORMAT_BEGIN
 90
        0
 91
        1
 62
     0
 92
       -2
340
0
 93
        0
 40
0.045
309
GRIDFORMAT_END
 95
       32
302
GRIDFORMAT
  1
GRIDFORMAT_BEGIN
 90
        0
 91
        1
 62
     0
 92
       -2
340
0
 93
        0
 40
0.045
309
GRIDFORMAT_END
309
TABLEFORMAT_END
  1
CELLSTYLE_BEGIN
 90
        2
 91
        1
300
_HEADER
309
CELLSTYLE_END
300
CELLSTYLE
  1
TABLEFORMAT_BEGIN
 90
        5
170
     1
 91
        0
 92
        0
 62
   257
 93
        1
300
CONTENTFORMAT
  1
CONTENTFORMAT_BEGIN
 90
        0
 91
        0
 92
      512
 93
        0
300

 40
0.0
140
1.0
 94
        2
 62
     0
340
11
144
0.18
309
CONTENTFORMAT_END
171
     1
301
MARGIN
  1
CELLMARGIN_BEGIN
 40
0.06
 40
0.06
 40
0.06
 40
0.06
 40
0.18
 40
0.18
309
CELLMARGIN_END
 94
        6
 95
        1
302
GRIDFORMAT
  1
GRIDFORMAT_BEGIN
 90
        0
 91
        1
 62
     0
 92
       -2
340
0
 93
        0
 40
0.045
309
GRIDFORMAT_END
 95
        2
302
GRIDFORMAT
  1
GRIDFORMAT_BEGIN
 90
        0
 91
        1
 62
     0
 92
       -2
340
0
 93
        0
 40
0.045
309
GRIDFORMAT_END
 95
        4
302
GRIDFORMAT
  1
GRIDFORMAT_BEGIN
 90
        0
 91
        1
 62
     0
 92
       -2
340
0
 93
        0
 40
0.045
309
GRIDFORMAT_END
 95
        8
302
GRIDFORMAT
  1
GRIDFORMAT_BEGIN
 90
        0
 91
        1
 62
     0
 92
       -2
340
0
 93
        0
 40
0.045
309
GRIDFORMAT_END
 95
       16
302
GRIDFORMAT
  1
GRIDFORMAT_BEGIN
 90
        0
 91
        1
 62
     0
 92
       -2
340
0
 93
        0
 40
0.045
309
GRIDFORMAT_END
 95
       32
302
GRIDFORMAT
  1
GRIDFORMAT_BEGIN
 90
        0
 91
        1
 62
     0
 92
       -2
340
0
 93
        0
 40
0.045
309
GRIDFORMAT_END
309
TABLEFORMAT_END
  1
CELLSTYLE_BEGIN
 90
        3
 91
        2
300
_DATA
309
CELLSTYLE_END
  0
ACAD_PROXY_OBJECT
  5
23E
330
23D
100
AcDbProxyObject
 90
      499
 91
      543
 71
    33
 97
      157
 70
     0
162
                 0
161
               493
310
73CB81E85EB51B8BE3F2E07A17AD46E2F8FE00800030C02000000300012AF841D01405014050140501083C80A0481A0882A0D55554000000000000785FA4
 94
        0
  0
ACAD_PROXY_OBJECT
  5
23F
330
23D
100
AcDbProxyObject
 90
      499
 91
      544
 71
    33
 97
      157
 70
     0
162
                 0
161
               638
310
73CB81E85EB51B8BE3F2E07A17AD46E2F8FE00800030C02000000300012AFA1C80A0280A0280A0280A0280A0280A0280A0284A0280A0280A0280A0280A02400000000000000080000000000000785FA4
340
26A
 94
        0
  0
ACAD_PROXY_OBJECT
  5
240
330
23D
100
AcDbProxyObject
 90
      499
 91
      545
 71
    33
 97
      157
 70
     0
162
                 0
161
               716
310
73CB81E85EB51B8BE3F2E07A17AD46E2F8FE00800030C02000000300012AF98333333333333D33F24080A0280A0280A0280A0280A0280A0280A0280A0280A0280A0280A0280A0280A0280A0280A0280A0243BDF4F8D976EA23FC
340
0
 94
        0
  0
ACAD_PROXY_OBJECT
  5
241
330
23D
100
AcDbProxyObject
 90
      499
 91
      546
 71
    33
 97
      157
 70
     0
162
                 0
161
               315
310
73CB81E85EB51B8BE3F2E07A17AD46E2F8FE00800030C02000000300012AFC0000000000003C2FCC
340
0
 94
        0
  0
ACAD_PROXY_OBJECT
  5
242
330
23D
100
AcDbProxyObject
 90
      499
 91
      547
 71
    33
 97
      157
 70
     0
162
                 0
161
               493
310
73CB81E85EB51B8BE3F2E07A17AD46E2F8FE00800030C02000000300012AFC521D4454FB21E93F26A6666666666E4FE89A9999999999B93F8020000C3004
340
26B
340
26C
 94
        0
  0
ACAD_PROXY_OBJECT
  5
243
330
23D
100
AcDbProxyObject
 90
      499
 91
      548
 71
    33
 97
      157
 70
     0
162
             25878
311
4112401500114013401044900540045004D004CD1C01140138015001480104010C013C00B001140138015400B000C000B0012401500114013400B0011C011401380150014801040150016000B0009401CC00B000A0011C011401380134014C011C0080019C019401B8019001DC019C008000C800C800C800A4029035100540
311
0590040D44015001640132470045004E0054005200410043004F002C0045004E0055002C0030002C005100540059002C00470045004E00540052004100540058002C00250073002C002800470045004E004D00530047002000670065006E0064007700670020003200320033002900A4113801040134011401044E0041004D
311
0045004CD1C01140138015001480104010C013C00B001140138015400B000C000B0013801040134011400B0011C011401380150014801040150016000B0009401CC00B000A0011C011401380134014C011C0080019C019401B8019001DC019C008000C800C800D800A4012C3D004900460028004900530042004C0041004E0
311
04B00280050004100520054003A004E0041004D00450029002C0042004C004F0043004B003A004E0041004D0045002C0050004100520054003A004E0041004D00450029009054400450053004300520042D100114014C010C01480124014001500124013C0138013A470045004E0054005200410043004F002C0045004E005
311
5002C0030002C004400450053004300520049005000540049004F004E002C00470045004E00540052004100540058002C00250073002C002800470045004E004D00530047002000670065006E0064007700670020003200310037002900A4214C015001040138011001040148011001085300540041004E004400410052004
311
4004DD1C01140138015001480104010C013C00B001140138015400B000C000B0014C015001040138011001040148011000B0011C011401380150014801040150016000B0009401CC00B000A0011C011401380134014C011C0080019C019401B8019001DC019C008000C800C400E000A4029084D00410054004500520049004
311
1004C004213401040150011401480124010401300137470045004E0054005200410043004F002C0045004E0055002C0030002C004D004100540045005200490041004C002C00470045004E00540052004100540058002C00250073002C002800470045004E004D00530047002000670065006E006400770067002000320032
311
0031002900A41138013C0150011401044E004F00540045004CD1C01140138015001480104010C013C00B001140138015400B000C000B00138013C0150011400B0011C011401380150014801040150016000B0009401CC00B000A0011C011401380134014C011C0080019C019401B8019001DC019C008000C800C800D400A40
311
2906560045004E0044004F00520041958011401380110013C01480135470045004E0054005200410043004F002C0045004E0055002C0030002C00560045004E0044004F0052002C00470045004E00540052004100540058002C00250073002C002800470045004E004D00530047002000670065006E0064007700670020003
311
200320034002900A419100114014C010C014800C8010D4400450053004300520049005000540049004F004E00200032004ED1C01140138015001480104010C013C00B001140138015400B000C000B001100114014C010C01480124014001500124013C0138008000C800B0011C011401380150014801040150016000B00094
311
01CC00B000A0011C011401380134014C011C0080019C019401B8019001DC019C008000CC00D800A4029095300540041004E00440041005200440032004294C0150010401380110010401480110008000C80139470045004E0054005200410043004F002C0045004E0055002C0030002C005300540041004E00440041005200
311
4400200032002C00470045004E00540052004100540058002C00250073002C002800470045004E004D00530047002000670065006E0064007700670020003200320030002900A42534010401500114014801240104013000C8010A4D004100540045005200490041004C00200032004E11C01140138015001480104010C013
311
C00B001140138015400B000C000B001340104015001140148012401040130008000C800B0011C011401380150014801040150016000B0009401CC00B000A0011C011401380134014C011C0080019C019401B8019001DC019C008000D000C000A4029044D00410053005300411340104014C014C0132470045004E005400520
311
0410043004F002C0045004E0055002C0030002C004D004100530053002C00470045004E00540052004100540058002C00250073002C002800470045004E004D00530047002000670065006E006400770067002000340032002900A42950013C015001040130017C01340104014C014C010A54004F00540041004C0020004D0
311
04100530053004E51C01140138015001480104010C013C00B001140138015400B000C000B00150013C015001040130008001340104014C014C00B0011C011401380150014801040150016000B0009401CC00B000A0011C011401380134014C011C0080019C019401B8019001DC019C008000C800C800E000A401213D004900
311
460028004900530042004C0041004E004B0028004D0041005300530029002C0042004C0041004E004B002C005100540059002A004D004100530053002900905500052004900430045004154001480124010C01140133470045004E0054005200410043004F002C0045004E0055002C0030002C00500052004900430045002C
311
00470045004E00540052004100540058002C00250073002C002800470045004E004D00530047002000670065006E006400770067002000340033002900A40D1001240134010B4D004500410053005500520045004D0045004E0054004E51C01140138015001480104010C013C00B001140138015400B000C000B0013401140
311
104014C015401480114013401140138015000B0011C011401380150014801040150016000B0009401CC00B000A0011C011401380134014C011C0080019C019401B8019001DC019C008000D000D000A40290942004F004D005F0055004E0049005400530041554013801240150014C0134470045004E0054005200410043004
311
F002C0045004E0055002C0030002C0055004E004900540053002C00470045004E00540052004100540058002C00250073002C002800470045004E004D00530047002000670065006E0064007700670020003200340033002900A41CF400F0012401500114013400F801073D003C004900540045004D003E0041CF400F00124
311
01500114013400F801073D003C004900540045004D003E0041CF400F0012401500114013400F801063D003C005100540059003E0041CF400F0012401500114013400F801073D003C004900540045004D003E00910420069006C006C0020006F00660020004D006100740065007200690061006C00415040148012401040130
311
010541005200490041004C0041504014801240104013002901310090B65006100090065006100090045006100630068000A00455CC01C401B4002401CC01C401B40024014C01C401D4018401C8019400800134019401D0019401C80028011C7300710063006D0009007300710063006D000900530071007500610072006500
311
2000430065006E00740069006D0065007400650072000A00459CC01C4019801D0002401CC01C4019801D00024014C01C401D4018401C801940080011801BC01BC01D0002801147300710069006E0009007300710069006E000900530071007500610072006500200049006E000A0043D9C018401B00024019C018401B00024
311
011C018401B001B001BC01B80028010C710074000900710074000900510075006100720074000A0046DB001C40190017C01BC01E8002401B001C40190017C01BC01E80024013001A401C401D401A401900080013C01D401B8018C01940028010A6C0009006C0009004C0069007400650072000A00445B401B0002401B401B0
311
0024013401A401B001B001A401B001A401D0019401C80028010B79006400090079006400090059006100720064000A0042D9801D00024019801D00024011801BC01BC01D00028010B69006E00090069006E00090049006E00630068000A00429B4002401B400240134019401D0019401C80028011163006D00090063006D00
311
0900430065006E00740069006D0065007400650072000A00445B401B4002401B401B40024013401A401B001B001A401B4019401D0019401C80028010C6C00620009006C006200090050006F0075006E0064000A00431BC01E8002401BC01E80024013C01D401B8018C01940028010967000900670009004700720061006D00
311
0A00441B4019C002401B4019C0024013401A401B001B001A4019C01C8018401B40028010A62007800090062007800090042006F0078000A00404B400
161
              6696
310
73CB81E85EB51B8BE3F2E07A17AD46E2F8FE00800030C02000000300012AFA2080A0280A0280A0280D202269349E4B2196C9FA0320240501405014090140501405019011349A4F2590CB64FD0190120280A0280A3880C80C815174B85D2F97CA048080C80901405014051D40640640E883C16030180C064040440480A0280A
310
028EA0320320947077FBFDFEBF7F9FA02202405014050147501901905A0A0B6C1C7480BECFD0190120280A0280A3A80C80C835174B85D2F97CBE47E80C80901405014051D40640641E8BA5C2E97CBE5F23F40640480A0280A028EA03203211441E0B0180C060320202202405014050147501901909A383BFDFEFF5FBFCFD01
310
10120280A0280A3A80C80C8550505B60E3A405F67E80880901405014051D405024050242D03408BA5C2E97CBE5F23F40440480A0280A028EA02812028121881A040542A150A8147A1FA02202405014050147501409014090D409022E970BA5F2F97C8FD0110120280A0280A3A80A0480A048720681174B85D2F97CBE47E80C
310
80901405014051E40640643E8BA5C2E97CBE5F23F40640480A0288254811703D0BD6A3719C7F03C000186000080C566AB55AAD56FB1F959AAD56AB55BEC7E80A03159AAD56AB55BEC7E566AB55AAD56FB1FA0280C4863F1F8BC1E771F9218FC7E2F079DC7E80A031218FC7E2F079DC7E4863F1F8BC1E771FA0281480959AAD
310
56AB55BEC7E566AB55AAD56FB1FA0280A03159AAD56AB55BEC7E566AB55AAD56FB1FA0280C269349E4B219749F89A4D2792C865D27E80A0200566AB55AAD56FB1F959AAD56AB55BEC7F48400000000000010408000000C000B4FFFF4110340D024090140510429084410190A4064229014290A4290A40A000000000000785F
310
8000000000001E17E80C0100006180403800061801B39DEEA7C74B567E6CE77BA9F1D2D59F9B39DEEA7C74B567E5578E926B108541F877BE9F1B2EDD247E5578E926B108541F9B39DEEA7C74B567E5578E926B108541F877BE9F1B2EDD247E5578E926B108541F9703D0BD6A3717C7F40501409069014090541D064069703D
310
0BD6A3717C7F0040001860100400018601002000186005228817F3FFFCFFFF3FFFC80A0280A2A80A0280A0280A0280A0280A0280A0280A0280A0280A0280A0280C80D0640905419074390F00
340
15
340
0
340
11
340
11
340
16
340
16
340
16
 94
        0
  0
ACAD_PROXY_OBJECT
  5
244
330
23D
100
AcDbProxyObject
 90
      499
 91
      549
 71
    33
 97
      157
 70
     0
162
                 0
161
               279
310
73CB81E85EB51B8CE3F2E07A17AD46E338FE07800030C0200C00030C0123C9FE3E0000
340
26D
 94
        0
  0
ACAD_PROXY_OBJECT
  5
268
330
23D
100
AcDbProxyObject
 90
      499
 91
      562
 71
    33
 97
      157
 70
     0
162
                 0
161
               247
310
73CB81E85EB51B8CE3F2E07A17AD46E338FE00000030002000000300012A04
340
1AC
 94
        0
  0
ACAD_PROXY_OBJECT
  5
245
330
23D
100
AcDbProxyObject
 90
      499
 91
      550
 71
    33
 97
      157
 70
     0
162
                 0
161
               279
310
73CB81E85EB51B8CE3F2E07A17AD46E338FE07800030C0201C00030C012AE9FE0E0000
340
273
 94
        0
  0
ACAD_PROXY_OBJECT
  5
267
330
23D
100
AcDbProxyObject
 90
      499
 91
      561
 71
    33
 97
      157
 70
     0
162
                 0
161
               247
310
73CB81E85EB51B8CE3F2E07A17AD46E338FE00000030002000000300012A04
340
1AA
 94
        0
  0
ACAD_PROXY_OBJECT
  5
246
330
23D
100
AcDbProxyObject
 90
      499
 91
      551
 71
    33
 97
      157
 70
     0
162
                 0
161
               516
310
73CB81E85EB51B8BE3F2E07A17AD46E2F8FE00800030C02000000300012AF8570E2DB39DEF867E14AE47E17A945E1F852B91F85EA51787F4333333333333F33FAC
 94
        0
  0
ACAD_PROXY_OBJECT
  5
247
330
23D
100
AcDbProxyObject
 90
      499
 91
      552
 71
    33
 97
      157
 70
     0
162
                 0
161
               249
310
73CB81E85EB51B8BE3F2E07A17AD46E2F8FE00800030C02000000300012AFCCC
340
0
 94
        0
  0
ACAD_PROXY_OBJECT
  5
248
330
23D
100
AcDbProxyObject
 90
      499
 91
      553
 71
    33
 97
      157
 70
     0
162
             17300
311
42950019401B401C001B0018401D00194008000C40005013D003C0069006600280065007100750061006C00280048006F006C0065003A007400610070007000650064002C0022003000220029002C00220025002500630022002C0048006F006C0065003A006E006F006D0069006E0061006C0020002200200022002000690
311
06600280065007100750061006C00280048006F006C0065003A0075006E006900740073002C0022003100220029002C002200780022002C0022002D0022002900200022002000220029003E003C0069006600280065007100750061006C00280048006F006C0065003A007400610070007000650064002C002200300022002
311
9002C0048006F006C0065003A006400690061002C0048006F006C0065003A0070006900740063006800640065007300630029003E0020007B005C00460041004D004700440054003B0078007D0020003C0069006600280065007100750061006C00280048006F006C0065003A007400650072006D0069006E0061007400690
311
06F006E002C0022003000220029002C0048006F006C0065003A00640065007000740068002C0022005400480052005500220029003E005C0050007B005C00460041004D004700440054003B0076007D002500250063003C0048006F006C0065003A00630074006400690061003E0020007B005C00460041004D00470044005
311
4003B0078007D0020003C0048006F006C0065003A0063007400640065007000740068003E0042950019401B401C001B0018401D00194008000C401FE3D003C0069006600280065007100750061006C00280048006F006C0065003A007400610070007000650064002C0022003000220029002C00220025002500630022002C
311
0048006F006C0065003A006E006F006D0069006E0061006C002000220020002200200069006600280065007100750061006C00280048006F006C0065003A0075006E006900740073002C0022003100220029002C002200780022002C0022002D0022002900200022002000220029003E003C00690066002800650071007500
311
61006C00280048006F006C0065003A007400610070007000650064002C0022003000220029002C0048006F006C0065003A006400690061002C0048006F006C0065003A0070006900740063006800640065007300630029003E0020007B005C00460041004D004700440054003B0078007D0020003C00690066002800650071
311
00750061006C00280048006F006C0065003A007400650072006D0069006E006100740069006F006E002C0022003000220029002C0048006F006C0065003A00640065007000740068002C0022005400480052005500220029003E005C0050007B005C00460041004D004700440054003B0077007D002500250063003C004800
311
6F006C0065003A00630074006400690061003E002000580020003C0048006F006C0065003A006300740061006E0067006C0065003E0025002500640042950019401B401C001B0018401D00194008000C401CF3D003C0069006600280065007100750061006C00280048006F006C0065003A007400610070007000650064002
311
C0022003000220029002C00220025002500630022002C0048006F006C0065003A006E006F006D0069006E0061006C002000220020002200200069006600280065007100750061006C00280048006F006C0065003A0075006E006900740073002C0022003100220029002C002200780022002C0022002D00220029002000220
311
02000220029003E003C0069006600280065007100750061006C00280048006F006C0065003A007400610070007000650064002C0022003000220029002C0048006F006C0065003A006400690061002C0048006F006C0065003A0070006900740063006800640065007300630029003E005C0050007B005C00460041004D004
311
700440054003B0078007D0020003C0069006600280065007100750061006C00280048006F006C0065003A007400650072006D0069006E006100740069006F006E002C0022003000220029002C0048006F006C0065003A00640065007000740068002C0022005400480052005500220029003E0042950019401B401C001B001
311
8401D00194008000C401EA3D003C0069006600280065007100750061006C00280048006F006C0065003A007400610070007000650064002C0022003000220029002C00220025002500630022002C0048006F006C0065003A006E006F006D0069006E0061006C00200022002000220020006900660028006500710075006100
311
6C00280048006F006C0065003A0075006E006900740073002C0022003100220029002C002200780022002C0022002D0022002900200022002000220029003E003C0069006600280065007100750061006C00280048006F006C0065003A007400610070007000650064002C0022003000220029002C0048006F006C0065003A
311
006400690061002C0048006F006C0065003A0070006900740063006800640065007300630029003E0020007B005C00460041004D004700440054003B0078007D0020003C0069006600280065007100750061006C00280048006F006C0065003A007400650072006D0069006E006100740069006F006E002C00220030002200
311
29002C0048006F006C0065003A00640065007000740068002C0022005400480052005500220029003E005C0050007B005C00460041004D004700440054003B0077007D002500250063003C0048006F006C0065003A00630074006400690061003E0042950019401B401C001B0018401D00194008000C801173D003C0053005
311
400440050003A0044004500530043003E0020003C0053005400440050003A005300540044003E0042950019401B401C001B0018401D00194008000C4010C3D003C0053005400440050003A0044004500530043003E0042950019401B401C001B0018401D00194008000CC010B3D003C0053005400440050003A00530054004
311
4003E00C
161
               732
310
73CB81E85EB51B8BE3F2E07A17AD46E2F8FE00800030C02000000300012AFA1280A17480A15480A0480A0280E9014050340501407480A0280A0280A03A4050141D0140501D20280A3C81A0280E901405480A02A40D01456AAB9F503C
360
27F
330
27F
360
280
330
280
360
27E
330
27E
360
281
330
281
360
27C
360
27B
360
27D
330
27C
330
27B
330
27D
 94
        0
  0
ACAD_PROXY_OBJECT
  5
249
330
23D
100
AcDbProxyObject
 90
      499
 91
      554
 71
    33
 97
      157
 70
     0
162
                26
311
404E800C
161
               305
310
73CB81E85EB51B8BE3F2E07A17AD46E2F8FE00800030C02000000300012AFA1680A0280D55554C
 94
        0
  0
ACAD_PROXY_OBJECT
  5
24A
330
23D
100
AcDbProxyObject
 90
      499
 91
      555
 71
    33
 97
      157
 70
     0
162
              1098
311
510F400F0014C015001480154010C015000E8010C013C01340140017C013801040134011400F8008000F0014C015001480154010C015000E8015801240114015C017C013801040134011400F80080015801240114015C01700140014C010C010401300114008000F0014C015001480154010C015000E8014C0158017C014C0
311
10C01040130011400F800C
161
               332
310
73CB81E85EB51B8CE3F2E07A17AD46E2F8FE07800030C02000000300012AFA02808000000000001D07FC
340
11
 94
        0
  0
ACAD_PROXY_OBJECT
  5
24B
330
23D
100
AcDbProxyObject
 90
      499
 91
      556
 71
    33
 97
      157
 70
     0
162
                 0
161
               261
310
73CB81E85EB51B8BE3F2E07A17AD46E2F8FE00800030C02000000300012AFA0754
340
24F
 94
        0
  0
ACAD_PROXY_OBJECT
  5
24C
330
23D
100
AcDbProxyObject
 90
      499
 91
      557
 71
    33
 97
      157
 70
     0
162
               142
311
408F000F801023C003E0040DB0018C00CC00
161
               408
310
73CB81E85EB51B8BE3F2E07A17AD46E2F8FE00800030C02000000300012AFA08000000000000701F8000000000001C07E7FFFC17
340
24D
340
0
340
0
340
25C
340
25D
340
0
340
25E
340
25F
340
264
340
0
340
25D
340
0
 94
        0
  0
ACAD_PROXY_OBJECT
  5
265
330
23D
100
AcDbProxyObject
 90
      499
 91
      559
 71
    33
 97
      157
 70
     0
162
             20912
311
44D300124014C01500080013C01180080010C013C013C0148011001240138010401500114014C0142470045004E0054005200410043004F002C0045004E0055002C0030002C004C0049005300540020004F004600200043004F004F005200440049004E0041005400450053002C00470045004E00540052004100540058002
311
C00250073002C002800470045004E004D00530047002000670065006E00640069006D007A00200033003000290043CF400F0011001940198018401D401B001D0015001A401D001B0019400F8010A48004F004C00450020005400410042004C0045004E51C01140138015001480104010C013C00B001140138015400B000C00
311
0B00120013C0130011400800150010401080130011400B0011C011401380150014801040150016000B0009401CC00B000A0011C011401380134014C011C0080019C019401B8019001A401B401E8008000CC00C400A4010F3D003C00440065006600610075006C0074005400690074006C0065003E004193C01480124011C01
311
2401380134470045004E0054005200410043004F002C0045004E0055002C0030002C004F0052004900470049004E002C00470045004E00540052004100540058002C00250073002C002800470045004E004D00530047002000670065006E00640069006D007A002000310029004193C01480124011C0124013801344700450
311
04E0054005200410043004F002C0045004E0055002C0030002C004F0052004900470049004E002C00470045004E00540052004100540058002C00250073002C002800470045004E004D00530047002000670065006E00640069006D007A0020003100290041120013C013001140132470045004E0054005200410043004F00
311
2C0045004E0055002C0030002C0048004F004C0045002C00470045004E00540052004100540058002C00250073002C002800470045004E004D00530047002000670065006E00640069006D007A00200032002900538F400F00124011800A00124014C0108013001040138012C00A0012001BC01B00194012401D0019401B40
311
0A400B0013C01C801A4019C01A401B800B00080012001BC01B00194012401D0019401B400A400F800F00124011800A00124014C0108013001040138012C00A0012001BC01B00194012401D0019401B400A400B00088008800B00080012001BC01B00194012401B80190019401E000A400F8010158004BD1C01140138015001
311
480104010C013C00B001140138015400B000C000B0016000B0011C011401380150014801040150016000B0009401CC00B000A0011C011401380134014C011C0080019C019401B8019001A401B401E8008000CC00A4010159004BD1C01140138015001480104010C013C00B001140138015400B000C000B0016400B0011C011
311
401380150014801040150016000B0009401CC00B000A0011C011401380134014C011C0080019C019401B8019001A401B401E8008000D000A4010152004BD1C01140138015001480104010C013C00B001140138015400B000C000B0014800B0011C011401380150014801040150016000B0009401CC00B000A0011C01140138
311
0134014C011C0080019C019401B8019001A401B401E8008000D800A401187B005C004600530059004D0042004F004C007C00420030007C00490030007C00430032007C00500030003B004A007D005191C01140138015001480104010C013C00B001140138015400B000C000B001EC01700118014C016401340108013C01300
311
1F0010800C001F0012400C001F0010C00C801F0014000C000EC012801F400B0011C011401380150014801040150016000B0009401CC00B000A0011C011401380134014C011C0080019C019401B8019001A401B401E8008000DC00A401032500250043004C51C01140138015001480104010C013C00B001140138015400B000
311
C000B000940094010C00B0011C011401380150014801040150016000B0009401CC00B000A0011C011401380134014C011C0080019C019401B8019001A401B401E8008000E000A4010B4400450053004300520049005000540049004F004E004E91C01140138015001480104010C013C00B001140138015400B000C000B0011
311
00114014C010C01480124014001500124013C013800B0011C011401380150014801040150016000B0009401CC00B000A0011C011401380134014C011C0080019C019401B8019001A401B401E8008000C800C000A401044900540045004D004CD1C01140138015001480104010C013C00B001140138015400B000C000B00124
311
01500114013400B0011C011401380150014801040150016000B0009401CC00B000A0011C011401380134014C011C0080019C019401B8019001A401B401E8008000C400D000A4010549004E004400450058004D11C01140138015001480104010C013C00B001140138015400B000C000B00124013801100114016000B0011C0
311
11401380150014801040150016000B0009401CC00B000A0011C011401380134014C011C0080019C019401B8019001A401B401E8008000C400D400A4010448004F004C0045004CD1C01140138015001480104010C013C00B001140138015400B000C000B00120013C0130011400B0011C011401380150014801040150016000
311
B0009401CC00B000A0011C011401380134014C011C0080019C019401B8019001A401B401E8008000C400D800A4010A48004F004C004500200049004E004400450058004E51C01140138015001480104010C013C00B001140138015400B000C000B00120013C0130011400800124013801100114016000B0011C01140138015
311
0014801040150016000B0009401CC00B000A0011C011401380134014C011C0080019C019401B8019001A401B401E8008000C400DC00A40109550053004500520020004900540045004D004E11C01140138015001480104010C013C00B001140138015400B000C000B00154014C011401480080012401500114013400B0011C
311
011401380150014801040150016000B0009401CC00B000A0011C011401380134014C011C0080019C019401B8019001A401B401E8008000C800C800A401035100540059004C91C01140138015001480104010C013C00B001140138015400B000C000B001440150016400B0011C011401380150014801040150016000B000940
311
1CC00B000A0011C011401380134014C011C0080019C019401B8019001A401B401E8008000C400E400A401085300540041004E0044004100520044004DD1C01140138015001480104010C013C00B001140138015400B000C000B0014C015001040138011001040148011000B0011C011401380150014801040150016000B000
311
9401CC00B000A0011C011401380134014C011C0080019C019401B8019001A401B401E8008000C800C400A4014E3D003C004900460028004900530042004C0041004E004B00280048006F006C0065004900740065006D0029002C004F0072006900670069006E002C00200048006F006C0065004900740065006D0029003E00
311
3C004900460028004900530042004C0041004E004B00280048006F006C0065004900740065006D0029002C00220022002C00200048006F006C00650049006E0064006500780029003E00CC
161
              7105
310
73CB81E85EB51B8BE3F2E07A17AD46E2F8FE00800030C02000000300012AFA46347FFFFFFFA020600005C0F42F5A8DC5F1FC01000061806808180001703D0BD6A3717C7F004000186018080F0201800000000000000000000000000000000F6295C8FC2F5487E5C0F42F5A8DC5F1FC01000061800F6295C8FC2F5487E5C0F4
310
2F5A8DC5F1FC0100006180403F8080F0201800000000000000000000000000000000F6295C8FC2F5487E5C0F42F5A8DC5F1FC01000061800F6295C8FC2F5487E5C0F42F5A8DC5F1FC0100006180403FA1C8821E88A0481A0882A0E862028722489A2A82A2483A288621A880000808000808200110A000101000101040021F4
310
0002020202020800446800040400040400008150000808000808000103A0001010001010000209400020200020206004168000404000404040083D000080800080020010CA0001010001010500A0340002020002020A0143A800040400040410008950000808000808280113A000101000101050022B40002020002020C004
310
528000404000400100086D22000CFFFFFFFF0026A6666666667A4FE7FFFFFFF819353333333333D27F3FFFFFFFC049A9999999999E93F9FFFFFFFE024D4CCCCCCCCCF49FCFFFFFFFF0226A6666666667A4FE7FFFFFFF811353333333333D27F3FFFFFFFC0D9FFFFFFFE0600000000000000204FFFFFFFF0026A66666666676
310
4FE7FFFFFFF801353333333333D27F3FFFFFFFC009A9999999999E93F9FFFFFFFE004D4CCCCCCCCCF49FCFFFFFFFF0026A6666666667A4FE7FFFFFFF819703D0BD6A371BC7F3FFFFFFFC0C67666666666606409FFFFFFFE880033FFFFFFFC009A9999999999E93F9FFFFFFFE064D4CCCCCCCCCF49FCFFFFFFFF0326A666666
310
6667A4FE7FFFFFFF819353333333333D27F3FFFFFFFC0C9A9999999999E93F9FFFFFFFE064D4CCCCCCCCCF49FCFFFFFFFF0367FFFFFFF81800000000000000813FFFFFFFC009A9999999999D93F9FFFFFFFE004D4CCCCCCCCCF49FCFFFFFFFF0326A6666666667A4FE7FFFFFFF801353333333333D27F3FFFFFFFC009A9999
310
999999E93F9FFFFFFFE065C0F42F5A8DC6F1FCFFFFFFFF0319D999999999819027FFFFFFFA088800000021E000000890000002260000008220E00020089000000206000200810000801FFFFFFFE812020002822200000008780000022400000089800000206000082220000000878000002240000008A8000001FFFFFFFF4C
340
0
340
0
340
0
340
0
340
11
340
11
 94
        0
  0
ACAD_PROXY_OBJECT
  5
266
330
23D
100
AcDbProxyObject
 90
      499
 91
      560
 71
    33
 97
      157
 70
     0
162
             10568
311
411040138014C0124010641004E00530049005F004300429040138014C0124017C0150012401500154014C011541004E00530049005F00420052005F005200650076006900730069006F006E006C00690073007400610044104008000A000E000B800D401E000C400C400B800C001A401B8018C01A000A4010641004E00530
311
049005F00410044518008000A000C800E000B800C001E000D000C000B800C001A401B8018C01A000A4010641004E00530049005F00460044514008000A000CC00D000B800C001E000D000D000B800C001A401B8018C01A000A4010641004E00530049005F00450044510008000A000C800C800B800C001E000CC00D000B800
311
C001A401B8018C01A000A4010641004E00530049005F00440044508008000A000C400C400B800C001E000C400DC00B800C001A401B8018C01A000A4010641004E00530049005F0042004450C008000A000C400DC00B800C001E000C800C800B800C001A401B8018C01A000A4010641004E00530049005F00430044D0401B80
311
1CC01A40080015001A401D001B001940080010801B001BC018C01AC00800110010C010C41004E00530049005F005400490054004C0045004400430044D0401B801CC01A40080015001A401D001B001940080010801B001BC018C01AC00800104010C010C41004E00530049005F005400490054004C00450041004300439540
311
14C0080015001A401D001B001940080010801B001BC018C01AC010A41004E00530049005F00540049005400550053004490401B801CC01A40080015001A401D001B001940080010801B001BC018C01AC00800110010B41004E00530049005F005400490054004C00450044004490401B801CC01A40080015001A401D001B00
311
1940080010801B001BC018C01AC00800104010B41004E00530049005F005400490054004C004500410044948019401D801A401CC01A401BC01B801B001A401CC01D000800110017C01080148017C011541004E00530049005F00420052005F005200650076006900730069006F006E006C0069007300740064004494801940
311
1D801A401CC01A401BC01B801B001A401CC01D000800110017C01500148017C011541004E00530049005F00540052005F005200650076006900730069006F006E006C00690073007400640044948019401D801A401CC01A401BC01B801B001A401CC01D000800104017C01080148017C011541004E00530049005F00420052
311
005F005200650076006900730069006F006E006C00690073007400610044948019401D801A401CC01A401BC01B801B001A401CC01D000800104017C01500148017C011541004E00530049005F00540052005F005200650076006900730069006F006E006C00690073007400610044948019401D801A401CC01A401BC01B801
311
B001A401CC01D000800110017C01080130017C011541004E00530049005F0042004C005F005200650076006900730069006F006E006C00690073007400640044948019401D801A401CC01A401BC01B801B001A401CC01D000800110017C01500130017C011541004E00530049005F0054004C005F005200650076006900730
311
069006F006E006C00690073007400640044948019401D801A401CC01A401BC01B801B001A401CC01D000800104017C01080130017C011541004E00530049005F0042004C005F005200650076006900730069006F006E006C00690073007400610044948019401D801A401CC01A401BC01B801B001A401CC01D000800104017
311
C01500130017C011541004E00530049005F0054004C005F005200650076006900730069006F006E006C006900730074006100A74
161
               498
310
73CB81E85EB51B8BE3F2E07A17AD46E2F8FE00800030C02000000300012AFB2E8320A84205400000000002015900000000000000324000000000000007100C
 94
        0
  0
FIELD
  5
276
102
{ACAD_REACTORS
330
275
102
}
330
275
100
AcDbField
  1
_text
  2
%<\_FldIdx 0>% %<\_FldIdx 1>%-%<\_FldIdx 2>%
 90
        3
360
277
360
279
360
27A
 97
        0
 91
       63
 92
        0
 94
        9
 95
        2
 96
        0
300

 93
        0
  7
ACFD_FIELD_VALUE
 93
        3
 90
        0
 94
        0
300

302

304
ACVALUE_END
301

 98
        0
  0
ACAD_PROXY_OBJECT
  5
27F
330
0
100
AcDbProxyObject
 90
      499
 91
      565
 71
    33
 97
      157
 70
     0
162
              4364
311
42950019401B401C001B0018401D00194008000C40005013D003C0069006600280065007100750061006C00280048006F006C0065003A007400610070007000650064002C0022003000220029002C00220025002500630022002C0048006F006C0065003A006E006F006D0069006E0061006C0020002200200022002000690
311
06600280065007100750061006C00280048006F006C0065003A0075006E006900740073002C0022003100220029002C002200780022002C0022002D0022002900200022002000220029003E003C0069006600280065007100750061006C00280048006F006C0065003A007400610070007000650064002C002200300022002
311
9002C0048006F006C0065003A006400690061002C0048006F006C0065003A0070006900740063006800640065007300630029003E0020007B005C00460041004D004700440054003B0078007D0020003C0069006600280065007100750061006C00280048006F006C0065003A007400650072006D0069006E0061007400690
311
06F006E002C0022003000220029002C0048006F006C0065003A00640065007000740068002C0022005400480052005500220029003E005C0050007B005C00460041004D004700440054003B0076007D002500250063003C0048006F006C0065003A00630074006400690061003E0020007B005C00460041004D00470044005
311
4003B0078007D0020003C0048006F006C0065003A0063007400640065007000740068003E00C
161
                29
310
73E0101C
 94
        0
  0
ACAD_PROXY_OBJECT
  5
280
330
0
100
AcDbProxyObject
 90
      499
 91
      565
 71
    33
 97
      157
 70
     0
162
              4244
311
42950019401B401C001B0018401D00194008000C401FE3D003C0069006600280065007100750061006C00280048006F006C0065003A007400610070007000650064002C0022003000220029002C00220025002500630022002C0048006F006C0065003A006E006F006D0069006E0061006C002000220020002200200069006
311
600280065007100750061006C00280048006F006C0065003A0075006E006900740073002C0022003100220029002C002200780022002C0022002D0022002900200022002000220029003E003C0069006600280065007100750061006C00280048006F006C0065003A007400610070007000650064002C00220030002200290
311
02C0048006F006C0065003A006400690061002C0048006F006C0065003A0070006900740063006800640065007300630029003E0020007B005C00460041004D004700440054003B0078007D0020003C0069006600280065007100750061006C00280048006F006C0065003A007400650072006D0069006E006100740069006
311
F006E002C0022003000220029002C0048006F006C0065003A00640065007000740068002C0022005400480052005500220029003E005C0050007B005C00460041004D004700440054003B0077007D002500250063003C0048006F006C0065003A00630074006400690061003E002000580020003C0048006F006C0065003A0
311
06300740061006E0067006C0065003E00250025006400C
161
                29
310
73E0101C
 94
        0
  0
ACAD_PROXY_OBJECT
  5
27E
330
0
100
AcDbProxyObject
 90
      499
 91
      565
 71
    33
 97
      157
 70
     0
162
              3492
311
42950019401B401C001B0018401D00194008000C401CF3D003C0069006600280065007100750061006C00280048006F006C0065003A007400610070007000650064002C0022003000220029002C00220025002500630022002C0048006F006C0065003A006E006F006D0069006E0061006C002000220020002200200069006
311
600280065007100750061006C00280048006F006C0065003A0075006E006900740073002C0022003100220029002C002200780022002C0022002D0022002900200022002000220029003E003C0069006600280065007100750061006C00280048006F006C0065003A007400610070007000650064002C00220030002200290
311
02C0048006F006C0065003A006400690061002C0048006F006C0065003A0070006900740063006800640065007300630029003E005C0050007B005C00460041004D004700440054003B0078007D0020003C0069006600280065007100750061006C00280048006F006C0065003A007400650072006D0069006E00610074006
311
9006F006E002C0022003000220029002C0048006F006C0065003A00640065007000740068002C0022005400480052005500220029003E00C
161
                29
310
73E0101C
 94
        0
  0
ACAD_PROXY_OBJECT
  5
281
330
0
100
AcDbProxyObject
 90
      499
 91
      565
 71
    33
 97
      157
 70
     0
162
              3924
311
42950019401B401C001B0018401D00194008000C401EA3D003C0069006600280065007100750061006C00280048006F006C0065003A007400610070007000650064002C0022003000220029002C00220025002500630022002C0048006F006C0065003A006E006F006D0069006E0061006C002000220020002200200069006
311
600280065007100750061006C00280048006F006C0065003A0075006E006900740073002C0022003100220029002C002200780022002C0022002D0022002900200022002000220029003E003C0069006600280065007100750061006C00280048006F006C0065003A007400610070007000650064002C00220030002200290
311
02C0048006F006C0065003A006400690061002C0048006F006C0065003A0070006900740063006800640065007300630029003E0020007B005C00460041004D004700440054003B0078007D0020003C0069006600280065007100750061006C00280048006F006C0065003A007400650072006D0069006E006100740069006
311
F006E002C0022003000220029002C0048006F006C0065003A00640065007000740068002C0022005400480052005500220029003E005C0050007B005C00460041004D004700440054003B0077007D002500250063003C0048006F006C0065003A00630074006400690061003E00C
161
                29
310
73E0101C
 94
        0
  0
ACAD_PROXY_OBJECT
  5
27C
330
0
100
AcDbProxyObject
 90
      499
 91
      565
 71
    33
 97
      157
 70
     0
162
               548
311
42950019401B401C001B0018401D00194008000C801173D003C0053005400440050003A0044004500530043003E0020003C0053005400440050003A005300540044003E00C
161
                29
310
73E01014
 94
        0
  0
ACAD_PROXY_OBJECT
  5
27B
330
0
100
AcDbProxyObject
 90
      499
 91
      565
 71
    33
 97
      157
 70
     0
162
               372
311
42950019401B401C001B0018401D00194008000C4010C3D003C0053005400440050003A0044004500530043003E00C
161
                29
310
73E0101C
 94
        0
  0
ACAD_PROXY_OBJECT
  5
27D
330
0
100
AcDbProxyObject
 90
      499
 91
      565
 71
    33
 97
      157
 70
     0
162
               356
311
42950019401B401C001B0018401D00194008000CC010B3D003C0053005400440050003A005300540044003E00C
161
                29
310
73E01014
 94
        0
  0
FIELD
  5
277
330
276
100
AcDbField
  1
AcVar
  2
\AcVar ViewType \f "%tc1"
 90
        0
 97
        0
 91
       63
 92
        0
 94
       43
 95
        2
 96
        0
300

 93
        1
  6
Variable
 93
        2
 90
        4
  1
ViewType
 94
        0
300

302

304
ACVALUE_END
  7
ACFD_FIELD_VALUE
 93
        1
 90
        0
 94
        0
300
%tc1
302

304
ACVALUE_END
301
----
 98
        4
  0
FIELD
  5
279
330
276
100
AcDbField
  1
AcVar
  2
\AcVar ViewSectionStartId
 90
        0
 97
        0
 91
       63
 92
        0
 94
       43
 95
        2
 96
        0
300

 93
        1
  6
Variable
 93
        2
 90
        4
  1
ViewSectionStartId
 94
        0
300

302

304
ACVALUE_END
  7
ACFD_FIELD_VALUE
 93
        1
 90
        0
 94
        0
300

302

304
ACVALUE_END
301
----
 98
        4
  0
FIELD
  5
27A
330
276
100
AcDbField
  1
AcVar
  2
\AcVar ViewSectionEndId
 90
        0
 97
        0
 91
       63
 92
        0
 94
       43
 95
        2
 96
        0
300

 93
        1
  6
Variable
 93
        2
 90
        4
  1
ViewSectionEndId
 94
        0
300

302

304
ACVALUE_END
  7
ACFD_FIELD_VALUE
 93
        1
 90
        0
 94
        0
300

302

304
ACVALUE_END
301
----
 98
        4
  0
ENDSEC
  0
SECTION
  2
ACDSDATA
 70
     2
 71
     8
  0
ACDSSCHEMA
 90
        0
  1
AcDb_Thumbnail_Schema
  2
AcDbDs::ID
280
    10
 91
        8
  2
Thumbnail_Data
280
    15
 91
        0
101
ACDSRECORD
 95
        0
 90
        1
  2
AcDbDs::TreatedAsObjectData
280
     1
291
     1
101
ACDSRECORD
 95
        0
 90
        2
  2
AcDbDs::Legacy
280
     1
291
     1
101
ACDSRECORD
  1
AcDbDs::ID
 90
        3
  2
AcDs:Indexable
280
     1
291
     1
101
ACDSRECORD
  1
AcDbDs::ID
 90
        4
  2
AcDbDs::HandleAttribute
280
     7
282
     1
  0
ACDSSCHEMA
 90
        1
  1
AcDbDs::TreatedAsObjectDataSchema
  2
AcDbDs::TreatedAsObjectData
280
     1
 91
        0
  0
ACDSSCHEMA
 90
        2
  1
AcDbDs::LegacySchema
  2
AcDbDs::Legacy
280
     1
 91
        0
  0
ACDSSCHEMA
 90
        3
  1
AcDbDs::IndexedPropertySchema
  2
AcDs:Indexable
280
     1
 91
        0
  0
ACDSSCHEMA
 90
        4
  1
AcDbDs::HandleAttributeSchema
  2
AcDbDs::HandleAttribute
280
     7
 91
        1
284
     1
  0
ACDSRECORD
 90
        0
  2
AcDbDs::ID
280
    10
320
59
  2
Thumbnail_Data
280
    15
 94
     2982
310
89504E470D0A1A0A0000000D49484452000000C500000100080300000034B4427100000300504C5445FFFFFFFFFFFFFFFFFF0000000000000000000000000000000000000000000000000000330000660000990000CC0000FF0033000033330033660033990033CC0033FF0066000066330066660066990066CC0066FF0099
310
000099330099660099990099CC0099FF00CC0000CC3300CC6600CC9900CCCC00CCFF00FF0000FF3300FF6600FF9900FFCC00FFFF3300003300333300663300993300CC3300FF3333003333333333663333993333CC3333FF3366003366333366663366993366CC3366FF3399003399333399663399993399CC3399FF33CC00
310
33CC3333CC6633CC9933CCCC33CCFF33FF0033FF3333FF6633FF9933FFCC33FFFF6600006600336600666600996600CC6600FF6633006633336633666633996633CC6633FF6666006666336666666666996666CC6666FF6699006699336699666699996699CC6699FF66CC0066CC3366CC6666CC9966CCCC66CCFF66FF0066
310
FF3366FF6666FF9966FFCC66FFFF9900009900339900669900999900CC9900FF9933009933339933669933999933CC9933FF9966009966339966669966999966CC9966FF9999009999339999669999999999CC9999FF99CC0099CC3399CC6699CC9999CCCC99CCFF99FF0099FF3399FF6699FF9999FFCC99FFFFCC0000CC00
310
33CC0066CC0099CC00CCCC00FFCC3300CC3333CC3366CC3399CC33CCCC33FFCC6600CC6633CC6666CC6699CC66CCCC66FFCC9900CC9933CC9966CC9999CC99CCCC99FFCCCC00CCCC33CCCC66CCCC99CCCCCCCCCCFFCCFF00CCFF33CCFF66CCFF99CCFFCCCCFFFFFF0000FF0033FF0066FF0099FF00CCFF00FFFF3300FF3333
310
FF3366FF3399FF33CCFF33FFFF6600FF6633FF6666FF6699FF66CCFF66FFFF9900FF9933FF9966FF9999FF99CCFF99FFFFCC00FFCC33FFCC66FFCC99FFCCCCFFCCFFFFFF00FFFF33FFFF66FFFF99FFFFCCFFFFFF0000000D0D0D1A1A1A2828283535354343435050505D5D5D6B6B6B787878868686939393A1A1A1AEAEAEBB
310
BBBBC9C9C9D6D6D6E4E4E4F1F1F1FFFFFF000000000000000000000000000000000000000000000000000000000000AD4AB4E4000007304944415478DAED9D5D7AAA301086F33C2EE06CC31B2FD90FFB713F5E72D39D283F41A204C8024E0204830585AA7486CEB42246A07999E4CB2F29136B3026CE2B3026D81A8C288882
310
2888822888E26F52E4AFD871691BA578E16EE44BDFFE0714AAAA4AFDA34AF35E29A414398F8D9DEB372F2D5152A86C738AB4A5B1D96EA2822955964A6FFB5730EE82EC8B28CAAF9CFB9C9FF3ECC42B56653CF68B8BE8455AFA492C2AC0F9E27CCA2EE1E9740A3D9984FA7316894B92725F95874A679A834963254F2EC2BBB4
310
41B5AF4A5014AC88BCBD48FDD4DF67A1AF5819678AC93D4F2F49ECE79C27FCC0D835CA95CAB5CFE25407A57EA644A64051A8EC94E511F752E94535D4955DB38C27717AF17894ED2351149957EA780BCE4D10CFB3A4E00216053B786116C651EC9FB417D821BAA87D1C795E14A7318FF22AE65EC2A34399E9DC1FFB3AE8CA0A
310
4FC412568A624A84E1298EC2500B94C902BC2CFDC88BBDB314C2CBCB44E4C5D5136511C7D139BF08EDB08A7B5C01A36065B2D9C4E126CC6A59CABD98C75E926631E7229125DF9B546702DBA0DC7067E028D43EDCC4D1C66B4A3C55887D51E48732DFCB2AAF9434C155AE3D72A8F28B2C656572BB64D028742A3AC56128AAB2
310
2D2306EB214EA04E75153C0A96FB22CBCAEA30F172E5BE64002974515699F2AC524ABFA9EED7D9B50175605D3F0147515EAF7B6DB74D63CEAEFBED759F83A4606AA63190144DDE555D2656ACBFEB86A8F61D10C52B0686E288A9C3802888E22D1640A408D6411100A50866D8AC836F672DE18BA36C7A4ACCEED7ED5EEF062C
310
D0AF7FFF52E7E4144A8A3A76107D8AE13881A668FCD1A7D037BE76897D351BC0146DA27AE60BB6902FA676C02FD3C3FF698ADE65BAECFDA22F06AEBE1CC5748DDAAD42A318608D32F6F565B65BB41AB5954C4AF655DB16AF2FB6D298E6D0BB78CB8BADCE13E647736C195A5FB4CE308638455967DC53E052DA3A7FD7100C73
310
EE36A5C5802F90E5EE36533086D8175BA77A82D81763F5285035F38914DFEB510F34EA76D96529E6B713764F8361F962ACAD87B3C52A51D7CC3B08DCBD07129A46FD5869D1B7F546FAA310B6BB25A8FEA8776A1436A595EFE98F02A951086B83A034EA473D9CE034EA250A89DC17C034EA381F638646999A39288A9F0F5000
310
F5C5748DD267034E51C3E37A541BFCBD7A14F6DAA0EDCBC1DFD6C35E1B1CEB5543D707422D56D2A8556BD4C352FBC57E5A1835F35734EA08C7177F51A390F647DD69143AA51DD6288CFD51D87BFEE18D4EBEB31E85AF36481A451AB5668D9A51F300AC518FEAB27834EA912F4648006AD4B31435E014ACA3937D92B19E7F0C
310
4A7B730AFAD1C926EFAFA136689D82BB36D8CE1B443E5BBE99C3D9CE9617DD5F1523AB8609F14F982FCDAFDEA476CF8DA273EEB2F3CC9B59FF2EC54EFF98DF6F9B91654E2D970D785B7931315B34739B0DC98DE2B5855B5BAE37514CEB3FDB1E9B59C152B6143A6C524CD90840ED8AC61F8BF9C224293BCFDC50D427BEBE92
310
2E5B92C2E60B69B4D65034A7BD6345E0A535AA9B2DDFA1B7C983B97A546F765AA39C8FE9B703ECE657CA8BC69E2B2DEC16AB4690B84761649D90508F4E5A1980343A39F379D9BA50413857ADDF827DD86245E00B678ED1E75AAC41F0498A055BACC13B28D8F3B1B18FB6583B8CD72826F70D42D6A8C9E317343A098B829E4B
310
82327E2191CFC959E37349ADB2211F9DEC28502B2D5E5FB863AC687DD11B63B5142835AA535AA4BEB81B6345AC51434ABB0E8D424731A851289F9DBCD7286CBE18D628644A3BA651F87237D50649A348A348A348A348A3FE745B0FF7B393EB6AEBE15ED995FAA348A3DCB0F121D54906C317F327CB771A65863281FB82348A
310
348AEA51D4D6C39AA2EE566547E98BDBAAECED5AC1389576DB2C77DCAD2D8F335F6CCD8460CB81365F3469AA7E21F6459DA49AD9CD5BE4BE705665479A2F589B2FEE7C814EA358FB0006E2F2E27E5576EA33A7FEA8F7F647D9E8D25A5EBFDFD6B3D185B3B2EB8CB69E791806E8930B73170D853943FB271A85345F90469146
310
7DB43F0AAD2F684D54E81A852F77D35A5E1F2FBB27AFFD38F0440FD075FED9381DB0277A662EF15F3F4809EF3F0DFD2845ADFA3F0D914681A9478DFC33F515AC371804502902C78E83BB9DED821FD912146CF892C7477776FA2D5ACA177F8E8261A0E8AD133979B5205014F7AB5DCE59F6085C8ABA517C2CAD12C52FDB3805
310
2A1BA3C06B4441144441147828EA2648D0BE99D648D0545C02D67D0858B386537B883DC12EB365F783F6E8E62A81DD694F63EDD72CE81DF12E5F387FD2466A88A2FF0ABAE85A0AD61D6DEF4760C3BA9DEE6C97F74913D262DF1F3A40D15DDBB974E0DC4EFBE98E823947B6D172A0DCC8F75C75A378D266BA8BDA540A9BB89C
310
B8D9D87737B8BBC3EC3BC5ED2B3745DDEE664760199EF9C2891ADADC6DF3201BC84262A4F302BEAD9B824A3D4814B8DA46444114CB507C1667718D228A5FE0140C120651AC97026F0DC4B9298536ACFDB4BDA30AD0A5E1831445147028A895441444411444411444019FE2BC027BC77F29FB7DFB0FBCB88C14700B42AF0000
310
000049454E44AE4260827E2E4C3680A23D76E7D07EE774EA4F4F284867CBA6591D50DDC6F754F540F126667A6ADA2B8EEA6EAA3B57A76DBAF5ED096ECF30F98BE2F155B7473DCE668B406378A78B4ED3D07294B641E293E11E3590BC802F6376B10F14D68F82E447E18AF0C6380A1F0ABA371474249964A437AC68DD168551
310
14AF633D480CF47DAC870505DD1B0AEB818043D151ED5D0AB66C331D32863BE86BFA0B8E428882EE0D85E5288BC2E6CC6DCE1CB45DB48303F0CD77A10B6251404371D9812CF15FCAB697FF2B3ECF239DA30A570000000049454E44AE426082633D480CF47EAC870505DD1B8AE0818043D153EDC508B66C331D33860BE83EFD
310
0147214441F786227054401172E621670EDA2EBAC101F8CA5DE8820414D050243B9025FE4BD9F6F27F68768EE1045E4A2C0000000049454E44AE426082
  0
ACDSRECORD
 90
        0
  2
AcDbDs::ID
280
    10
320
22
  2
Thumbnail_Data
280
    15
 94
     1704
310
89504E470D0A1A0A0000000D494844520000010000000076080300000010A0BD3C00000300504C5445FFFFFFFFFFFFFFFFFF0000000000000000000000000000000000000000000000000000330000660000990000CC0000FF0033000033330033660033990033CC0033FF0066000066330066660066990066CC0066FF0099
310
000099330099660099990099CC0099FF00CC0000CC3300CC6600CC9900CCCC00CCFF00FF0000FF3300FF6600FF9900FFCC00FFFF3300003300333300663300993300CC3300FF3333003333333333663333993333CC3333FF3366003366333366663366993366CC3366FF3399003399333399663399993399CC3399FF33CC00
310
33CC3333CC6633CC9933CCCC33CCFF33FF0033FF3333FF6633FF9933FFCC33FFFF6600006600336600666600996600CC6600FF6633006633336633666633996633CC6633FF6666006666336666666666996666CC6666FF6699006699336699666699996699CC6699FF66CC0066CC3366CC6666CC9966CCCC66CCFF66FF0066
310
FF3366FF6666FF9966FFCC66FFFF9900009900339900669900999900CC9900FF9933009933339933669933999933CC9933FF9966009966339966669966999966CC9966FF9999009999339999669999999999CC9999FF99CC0099CC3399CC6699CC9999CCCC99CCFF99FF0099FF3399FF6699FF9999FFCC99FFFFCC0000CC00
310
33CC0066CC0099CC00CCCC00FFCC3300CC3333CC3366CC3399CC33CCCC33FFCC6600CC6633CC6666CC6699CC66CCCC66FFCC9900CC9933CC9966CC9999CC99CCCC99FFCCCC00CCCC33CCCC66CCCC99CCCCCCCCCCFFCCFF00CCFF33CCFF66CCFF99CCFFCCCCFFFFFF0000FF0033FF0066FF0099FF00CCFF00FFFF3300FF3333
310
FF3366FF3399FF33CCFF33FFFF6600FF6633FF6666FF6699FF66CCFF66FFFF9900FF9933FF9966FF9999FF99CCFF99FFFFCC00FFCC33FFCC66FFCC99FFCCCCFFCCFFFFFF00FFFF33FFFF66FFFF99FFFFCCFFFFFF0000000D0D0D1A1A1A2828283535354343435050505D5D5D6B6B6B787878868686939393A1A1A1AEAEAEBB
310
BBBBC9C9C9D6D6D6E4E4E4F1F1F1FFFFFF000000000000000000000000000000000000000000000000000000000000AD4AB4E4000002744944415478DAED9B4B72C3201044E706BE8636BAFF8E0D3761E71D470808F405DBD8922A40F7ABD84A619795E90C43672022FF8D8957BB8C5863B428FF52C08FA9B1ECD3C6C7E3F1
310
CC8C3F2FFA61F764067E16C0AE7790F60530A74905700A8C9EE522E9656C3603ECE10E6853C06EEE303D8109B0A97FF13619010A69518063FC8B001B2AC9805B96C1247E340192F82BAE01B70AB0AD84BAD26510DE09DE28C0B612200AB0AB8446E08AE07E25C80AD0750D38AC84B30030532071825802CC683D7F3748AD56
310
F80E86F05BB75A8B768F69082A039C020E715F3EFC490330015CBCF3FCD74103340182022E05361A0059611FFB10EA7F7C682F085406B81498628FB5C00E5AA309E0C3163BFB80FC32D8F114F01960171F64E15681E805A206166F190C25C0CA9204983E209641FF8465852727189680688AC1326058FF0A8C5E084C80CCC6
310
20D632F8A62506D413CCB7C47004604BACA025D6710DE0E6E8217EF8CD51032A40BA39BA13A0C60312E74E461C0498D6BFB026D69B01370A60D7CF972605309752EBDEE06D19B03D26298237058E4E106D1578754C0E45803227D8AF15A6134C9C109D60B54EF04E0132C7E4A03220774C0E49807D4FD0A01F9333D8C7E40C
310
9D209D209D209D209D209C009F9C60DD4DD15FBA24F10D4D39C18B05081DD0969CE0D70294EA54E004FBCC0029EF09D6DD153ED129A513E4EE709913ECFE1F27E904E904DF3BC1DE05F8E8040B500D77852F7182AAEB9E6049FCAA4501540EF37120C1CD0051DF23BDA0A49F5876E6E0D5402693D00510700184027426C0E1
310
101A52F0A14F960870EE2C5633B1670F1EEE5FE114A0001480104208218410420821841042082184104208218414F307FD282ADE2259644E0000000049454E44AE426082A402DCB55FAEB6E08C95E8D4E00000000049454E44AE426082AE4260827990131637A2B7C334D2E3F5B6C3BD4C0ED90E4BF30187ED30FB8810B9F4
310
78651FD07EB97C5D1F100B8B83ECF438F4F4B8701F20A007E4D3E3AAA7C7BB0FE83E40AC0F60FECFD478DC36F7E056321EB7CD3D05402B1E501E40E6B63902E9F16700A8F980D200B26572CC7B00BD32B9B277A7102C97AF0280C9EDF355E201F35FA404A0564D08E31E402C1E501C408F07F47840D607402F97175C2E2F29
310
2F102D97979019EAE5F2887E597901AC5C5E4A7D009D72F93A3EE072B97C51003F3DE5821B6AE66C450000000049454E44AE426082
  0
ENDSEC
  0
EOF
